  0
SECTION
  2
HEADER
  9
$ACADVER
  1
AC1015
  9
$ACADMAINTVER
 70
    20
  9
$DWGCODEPAGE
  3
ANSI_1252
  9
$INSBASE
 10
1.774478216242575
 20
-18.53151459938381
 30
0.0
  9
$EXTMIN
 10
-12.78939120376566
 20
-21.12123016448665
 30
0.0
  9
$EXTMAX
 10
25.81885402133665
 20
1.684091953584859
 30
0.0
  9
$LIMMIN
 10
0.0
 20
0.0
  9
$LIMMAX
 10
36.0
 20
36.0
  9
$ORTHOMODE
 70
     1
  9
$REGENMODE
 70
     1
  9
$FILLMODE
 70
     1
  9
$QTEXTMODE
 70
     0
  9
$MIRRTEXT
 70
     1
  9
$LTSCALE
 40
1.0
  9
$ATTMODE
 70
     1
  9
$TEXTSIZE
 40
0.2
  9
$TRACEWID
 40
0.05
  9
$TEXTSTYLE
  7
STANDARD
  9
$CLAYER
  8
ADPDIM
  9
$CELTYPE
  6
BYLAYER
  9
$CECOLOR
 62
   256
  9
$CELTSCALE
 40
1.0
  9
$DISPSILH
 70
     0
  9
$DIMSCALE
 40
1.0
  9
$DIMASZ
 40
0.125
  9
$DIMEXO
 40
0.0625
  9
$DIMDLI
 40
0.38
  9
$DIMRND
 40
0.0
  9
$DIMDLE
 40
0.0
  9
$DIMEXE
 40
0.18
  9
$DIMTP
 40
0.0
  9
$DIMTM
 40
0.0
  9
$DIMTXT
 40
0.125
  9
$DIMCEN
 40
0.1875
  9
$DIMTSZ
 40
0.125
  9
$DIMTOL
 70
     0
  9
$DIMLIM
 70
     0
  9
$DIMTIH
 70
     0
  9
$DIMTOH
 70
     0
  9
$DIMSE1
 70
     0
  9
$DIMSE2
 70
     0
  9
$DIMTAD
 70
     0
  9
$DIMZIN
 70
     3
  9
$DIMBLK
  1

  9
$DIMASO
 70
     1
  9
$DIMSHO
 70
     1
  9
$DIMPOST
  1

  9
$DIMAPOST
  1

  9
$DIMALT
 70
     0
  9
$DIMALTD
 70
     1
  9
$DIMALTF
 40
25.4
  9
$DIMLFAC
 40
1.0
  9
$DIMTOFL
 70
     0
  9
$DIMTVP
 40
0.0
  9
$DIMTIX
 70
     0
  9
$DIMSOXD
 70
     0
  9
$DIMSAH
 70
     0
  9
$DIMBLK1
  1

  9
$DIMBLK2
  1

  9
$DIMSTYLE
  2
ADPDIM
  9
$DIMCLRD
 70
     0
  9
$DIMCLRE
 70
     0
  9
$DIMCLRT
 70
     0
  9
$DIMTFAC
 40
1.0
  9
$DIMGAP
 40
0.125
  9
$DIMJUST
 70
     0
  9
$DIMSD1
 70
     0
  9
$DIMSD2
 70
     0
  9
$DIMTOLJ
 70
     1
  9
$DIMTZIN
 70
     0
  9
$DIMALTZ
 70
     0
  9
$DIMALTTZ
 70
     0
  9
$DIMUPT
 70
     0
  9
$DIMDEC
 70
     4
  9
$DIMTDEC
 70
     4
  9
$DIMALTU
 70
     2
  9
$DIMALTTD
 70
     2
  9
$DIMTXSTY
  7
STANDARD
  9
$DIMAUNIT
 70
     0
  9
$DIMADEC
 70
     0
  9
$DIMALTRND
 40
0.0
  9
$DIMAZIN
 70
     0
  9
$DIMDSEP
 70
    46
  9
$DIMATFIT
 70
     3
  9
$DIMFRAC
 70
     0
  9
$DIMLDRBLK
  1

  9
$DIMLUNIT
 70
     2
  9
$DIMLWD
 70
    -2
  9
$DIMLWE
 70
    -2
  9
$DIMTMOVE
 70
     0
  9
$LUNITS
 70
     5
  9
$LUPREC
 70
     4
  9
$SKETCHINC
 40
0.1
  9
$FILLETRAD
 40
0.125
  9
$AUNITS
 70
     0
  9
$AUPREC
 70
     0
  9
$MENU
  1
acad
  9
$ELEVATION
 40
0.0
  9
$PELEVATION
 40
0.0
  9
$THICKNESS
 40
0.0
  9
$LIMCHECK
 70
     0
  9
$CHAMFERA
 40
0.0
  9
$CHAMFERB
 40
0.0
  9
$CHAMFERC
 40
0.0
  9
$CHAMFERD
 40
0.0
  9
$SKPOLY
 70
     0
  9
$TDCREATE
 40
2450212.520031632
  9
$TDUCREATE
 40
2450212.686698299
  9
$TDUPDATE
 40
2453957.009099283
  9
$TDUUPDATE
 40
2453957.175765949
  9
$TDINDWG
 40
0.0136988079
  9
$TDUSRTIMER
 40
0.0136988079
  9
$USRTIMER
 70
     1
  9
$ANGBASE
 50
0.0
  9
$ANGDIR
 70
     0
  9
$PDMODE
 70
     0
  9
$PDSIZE
 40
0.0
  9
$PLINEWID
 40
0.0
  9
$SPLFRAME
 70
     0
  9
$SPLINETYPE
 70
     6
  9
$SPLINESEGS
 70
     8
  9
$HANDSEED
  5
414
  9
$SURFTAB1
 70
     6
  9
$SURFTAB2
 70
     6
  9
$SURFTYPE
 70
     6
  9
$SURFU
 70
     6
  9
$SURFV
 70
     6
  9
$UCSBASE
  2

  9
$UCSNAME
  2

  9
$UCSORG
 10
0.0
 20
0.0
 30
0.0
  9
$UCSXDIR
 10
1.0
 20
0.0
 30
0.0
  9
$UCSYDIR
 10
0.0
 20
1.0
 30
0.0
  9
$UCSORTHOREF
  2

  9
$UCSORTHOVIEW
 70
     0
  9
$UCSORGTOP
 10
0.0
 20
0.0
 30
0.0
  9
$UCSORGBOTTOM
 10
0.0
 20
0.0
 30
0.0
  9
$UCSORGLEFT
 10
0.0
 20
0.0
 30
0.0
  9
$UCSORGRIGHT
 10
0.0
 20
0.0
 30
0.0
  9
$UCSORGFRONT
 10
0.0
 20
0.0
 30
0.0
  9
$UCSORGBACK
 10
0.0
 20
0.0
 30
0.0
  9
$PUCSBASE
  2

  9
$PUCSNAME
  2

  9
$PUCSORG
 10
0.0
 20
0.0
 30
0.0
  9
$PUCSXDIR
 10
1.0
 20
0.0
 30
0.0
  9
$PUCSYDIR
 10
0.0
 20
1.0
 30
0.0
  9
$PUCSORTHOREF
  2

  9
$PUCSORTHOVIEW
 70
     0
  9
$PUCSORGTOP
 10
0.0
 20
0.0
 30
0.0
  9
$PUCSORGBOTTOM
 10
0.0
 20
0.0
 30
0.0
  9
$PUCSORGLEFT
 10
0.0
 20
0.0
 30
0.0
  9
$PUCSORGRIGHT
 10
0.0
 20
0.0
 30
0.0
  9
$PUCSORGFRONT
 10
0.0
 20
0.0
 30
0.0
  9
$PUCSORGBACK
 10
0.0
 20
0.0
 30
0.0
  9
$USERI1
 70
     0
  9
$USERI2
 70
     0
  9
$USERI3
 70
     0
  9
$USERI4
 70
     0
  9
$USERI5
 70
     0
  9
$USERR1
 40
0.0
  9
$USERR2
 40
0.0
  9
$USERR3
 40
0.0
  9
$USERR4
 40
0.0
  9
$USERR5
 40
0.0
  9
$WORLDVIEW
 70
     1
  9
$SHADEDGE
 70
     3
  9
$SHADEDIF
 70
    70
  9
$TILEMODE
 70
     1
  9
$MAXACTVP
 70
    15
  9
$PINSBASE
 10
0.0
 20
0.0
 30
-3.159756027863134E+65
  9
$PLIMCHECK
 70
     0
  9
$PEXTMIN
 10
1.000000000000000E+20
 20
1.000000000000000E+20
 30
1.000000000000000E+20
  9
$PEXTMAX
 10
-1.000000000000000E+20
 20
-1.000000000000000E+20
 30
-1.000000000000000E+20
  9
$PLIMMIN
 10
0.0
 20
0.0
  9
$PLIMMAX
 10
12.0
 20
9.0
  9
$UNITMODE
 70
     0
  9
$VISRETAIN
 70
     0
  9
$PLINEGEN
 70
     0
  9
$PSLTSCALE
 70
     1
  9
$TREEDEPTH
 70
  3020
  9
$CMLSTYLE
  2
STANDARD
  9
$CMLJUST
 70
     0
  9
$CMLSCALE
 40
1.0
  9
$PROXYGRAPHICS
 70
     1
  9
$MEASUREMENT
 70
     0
  9
$CELWEIGHT
370
    -1
  9
$ENDCAPS
280
     0
  9
$JOINSTYLE
280
     0
  9
$LWDISPLAY
290
     0
  9
$INSUNITS
 70
     0
  9
$HYPERLINKBASE
  1

  9
$STYLESHEET
  1

  9
$XEDIT
290
     1
  9
$CEPSNTYPE
380
     0
  9
$PSTYLEMODE
290
     1
  9
$FINGERPRINTGUID
  2
{A54F01B1-6766-42F9-9AA8-8A5CDAE55C06}
  9
$VERSIONGUID
  2
{F9903F74-6851-451A-ACE0-681BB346CF34}
  9
$EXTNAMES
290
     1
  9
$PSVPSCALE
 40
0.0
  9
$OLESTARTUP
290
     0
  0
ENDSEC
  0
SECTION
  2
CLASSES
  0
CLASS
  1
ACDBDICTIONARYWDFLT
  2
AcDbDictionaryWithDefault
  3
ObjectDBX Classes
 90
        0
280
     0
281
     0
  0
CLASS
  1
ACDBPLACEHOLDER
  2
AcDbPlaceHolder
  3
ObjectDBX Classes
 90
        0
280
     0
281
     0
  0
CLASS
  1
LAYOUT
  2
AcDbLayout
  3
ObjectDBX Classes
 90
        0
280
     0
281
     0
  0
CLASS
  1
DICTIONARYVAR
  2
AcDbDictionaryVar
  3
ObjectDBX Classes
 90
        0
280
     0
281
     0
  0
CLASS
  1
MATERIAL
  2
AcDbMaterial
  3
ObjectDBX Classes
 90
     1024
280
     0
281
     0
  0
CLASS
  1
VISUALSTYLE
  2
AcDbVisualStyle
  3
ObjectDBX Classes
 90
     4095
280
     0
281
     0
  0
CLASS
  1
TABLESTYLE
  2
AcDbTableStyle
  3
ObjectDBX Classes
 90
     4095
280
     0
281
     0
  0
ENDSEC
  0
SECTION
  2
TABLES
  0
TABLE
  2
VPORT
  5
8
330
0
100
AcDbSymbolTable
 70
     1
  0
VPORT
  5
2D7
330
8
100
AcDbSymbolTableRecord
100
AcDbViewportTableRecord
  2
*Active
 70
     0
 10
0.0
 20
0.0
 11
1.0
 21
1.0
 12
3.335583641682141
 22
-11.22354742957046
 13
0.0
 23
0.0
 14
0.5740882589684922
 24
0.5740882589684922
 15
0.5
 25
0.5
 16
0.0
 26
0.0
 36
1.0
 17
0.0
 27
0.0
 37
0.0
 40
22.3617660825355
 41
1.774011299435028
 42
50.0
 43
0.0
 44
0.0
 50
0.0
 51
0.0
 71
     0
 72
   100
 73
     1
 74
     0
 75
     0
 76
     0
 77
     0
 78
     0
281
     0
 65
     1
110
0.0
120
0.0
130
0.0
111
1.0
121
0.0
131
0.0
112
0.0
122
1.0
132
0.0
 79
     0
146
0.0
  0
ENDTAB
  0
TABLE
  2
LTYPE
  5
5
330
0
100
AcDbSymbolTable
 70
     3
  0
LTYPE
  5
12
330
5
100
AcDbSymbolTableRecord
100
AcDbLinetypeTableRecord
  2
BYBLOCK
 70
     0
  3

 72
    65
 73
     0
 40
0.0
  0
LTYPE
  5
13
330
5
100
AcDbSymbolTableRecord
100
AcDbLinetypeTableRecord
  2
BYLAYER
 70
     0
  3

 72
    65
 73
     0
 40
0.0
  0
LTYPE
  5
14
330
5
100
AcDbSymbolTableRecord
100
AcDbLinetypeTableRecord
  2
CONTINUOUS
 70
     0
  3
Solid line
 72
    65
 73
     0
 40
0.0
  0
LTYPE
  5
C3
330
5
100
AcDbSymbolTableRecord
100
AcDbLinetypeTableRecord
  2
HIDDEN2
 70
     0
  3
_ _ _ _ _ _ _ _ _ _ _ _ _ _ _ _ _ _ _ _ _ _ _ _
 72
    65
 73
     2
 40
0.1875
 49
0.125
 74
     0
 49
-0.0625
 74
     0
  0
ENDTAB
  0
TABLE
  2
LAYER
  5
2
330
0
100
AcDbSymbolTable
 70
     5
  0
LAYER
  5
F
330
2
100
AcDbSymbolTableRecord
100
AcDbLayerTableRecord
  2
0
 70
     0
 62
     7
  6
CONTINUOUS
370
    -3
390
1AE
  0
LAYER
  5
C5
330
2
100
AcDbSymbolTableRecord
100
AcDbLayerTableRecord
  2
ADP2DETAIL
 70
     0
 62
     5
  6
CONTINUOUS
370
    -3
390
1AE
  0
LAYER
  5
C6
330
2
100
AcDbSymbolTableRecord
100
AcDbLayerTableRecord
  2
ADPDIM
 70
     0
 62
     3
  6
CONTINUOUS
370
    -3
390
1AE
  0
LAYER
  5
C8
330
2
100
AcDbSymbolTableRecord
100
AcDbLayerTableRecord
  2
ADP1DETAIL
 70
     0
 62
     7
  6
CONTINUOUS
370
    -3
390
1AE
  0
LAYER
  5
CA
330
2
100
AcDbSymbolTableRecord
100
AcDbLayerTableRecord
  2
DEFPOINTS
 70
     0
 62
     7
  6
CONTINUOUS
290
     0
370
    -3
390
1AE
  0
ENDTAB
  0
TABLE
  2
STYLE
  5
3
330
0
100
AcDbSymbolTable
 70
     2
  0
STYLE
  5
10
330
3
100
AcDbSymbolTableRecord
100
AcDbTextStyleTableRecord
  2
STANDARD
 70
     0
 40
0.0
 41
1.0
 50
0.0
 71
     0
 42
0.2
  3
txt
  4

  0
STYLE
  5
1B5
330
3
100
AcDbSymbolTableRecord
100
AcDbTextStyleTableRecord
  2
ARIAL_WIDE
 70
     0
 40
0.0
 41
1.25
 50
0.0
 71
     0
 42
0.2
  3
ARIAL.TTF
  4

1001
ACAD
1000
Arial
1071
       34
  0
ENDTAB
  0
TABLE
  2
VIEW
  5
6
330
0
100
AcDbSymbolTable
 70
     0
  0
ENDTAB
  0
TABLE
  2
UCS
  5
7
330
0
100
AcDbSymbolTable
 70
     0
  0
ENDTAB
  0
TABLE
  2
APPID
  5
9
330
0
100
AcDbSymbolTable
 70
     3
  0
APPID
  5
11
330
9
100
AcDbSymbolTableRecord
100
AcDbRegAppTableRecord
  2
ACAD
 70
     0
  0
APPID
  5
370
330
9
100
AcDbSymbolTableRecord
100
AcDbRegAppTableRecord
  2
ACAD_EXEMPT_FROM_CAD_STANDARDS
 70
     0
  0
APPID
  5
3E6
330
9
100
AcDbSymbolTableRecord
100
AcDbRegAppTableRecord
  2
DCO15
 70
     0
  0
ENDTAB
  0
TABLE
  2
DIMSTYLE
  5
A
330
0
100
AcDbSymbolTable
 70
     2
100
AcDbDimStyleTable
 71
     1
340
C4
  0
DIMSTYLE
105
C4
102
{ACAD_REACTORS
330
154
330
159
330
15B
330
15C
330
15F
330
161
330
16F
330
188
330
18E
330
191
330
320
102
}
330
A
100
AcDbSymbolTableRecord
100
AcDbDimStyleTableRecord
  2
ADPDIM
 70
     0
 41
0.125
 73
     0
 74
     0
 78
     3
140
0.125
141
0.1875
142
0.125
147
0.125
171
     1
273
     5
274
     1
277
     5
279
     2
284
     3
285
     3
286
     3
340
10
  0
ENDTAB
  0
TABLE
  2
BLOCK_RECORD
  5
1
330
0
100
AcDbSymbolTable
 70
    18
  0
BLOCK_RECORD
  5
18
102
{ACAD_XDICTIONARY
360
20D
102
}
330
1
100
AcDbSymbolTableRecord
100
AcDbBlockTableRecord
  2
*MODEL_SPACE
340
1B1
  0
BLOCK_RECORD
  5
15
102
{ACAD_XDICTIONARY
360
20B
102
}
330
1
100
AcDbSymbolTableRecord
100
AcDbBlockTableRecord
  2
*PAPER_SPACE
340
1B2
  0
BLOCK_RECORD
  5
A5
330
1
100
AcDbSymbolTableRecord
100
AcDbBlockTableRecord
  2
*D0
340
0
  0
BLOCK_RECORD
  5
A6
330
1
100
AcDbSymbolTableRecord
100
AcDbBlockTableRecord
  2
*D1
340
0
  0
BLOCK_RECORD
  5
A7
330
1
100
AcDbSymbolTableRecord
100
AcDbBlockTableRecord
  2
*D2
340
0
  0
BLOCK_RECORD
  5
A8
330
1
100
AcDbSymbolTableRecord
100
AcDbBlockTableRecord
  2
*D3
340
0
  0
BLOCK_RECORD
  5
A9
330
1
100
AcDbSymbolTableRecord
100
AcDbBlockTableRecord
  2
*D4
340
0
  0
BLOCK_RECORD
  5
AA
330
1
100
AcDbSymbolTableRecord
100
AcDbBlockTableRecord
  2
*D5
340
0
  0
BLOCK_RECORD
  5
AB
330
1
100
AcDbSymbolTableRecord
100
AcDbBlockTableRecord
  2
*D6
340
0
  0
BLOCK_RECORD
  5
AC
330
1
100
AcDbSymbolTableRecord
100
AcDbBlockTableRecord
  2
*D7
340
0
  0
BLOCK_RECORD
  5
AD
330
1
100
AcDbSymbolTableRecord
100
AcDbBlockTableRecord
  2
*D8
340
0
  0
BLOCK_RECORD
  5
AE
330
1
100
AcDbSymbolTableRecord
100
AcDbBlockTableRecord
  2
*D9
340
0
  0
BLOCK_RECORD
  5
AF
330
1
100
AcDbSymbolTableRecord
100
AcDbBlockTableRecord
  2
*D10
340
0
  0
BLOCK_RECORD
  5
321
330
1
100
AcDbSymbolTableRecord
100
AcDbBlockTableRecord
  2
*D11
340
0
  0
BLOCK_RECORD
  5
32E
330
1
100
AcDbSymbolTableRecord
100
AcDbBlockTableRecord
  2
*D12
340
0
  0
BLOCK_RECORD
  5
33B
330
1
100
AcDbSymbolTableRecord
100
AcDbBlockTableRecord
  2
*D13
340
0
  0
BLOCK_RECORD
  5
348
330
1
100
AcDbSymbolTableRecord
100
AcDbBlockTableRecord
  2
*D14
340
0
  0
BLOCK_RECORD
  5
355
330
1
100
AcDbSymbolTableRecord
100
AcDbBlockTableRecord
  2
*D15
340
0
  0
BLOCK_RECORD
  5
362
330
1
100
AcDbSymbolTableRecord
100
AcDbBlockTableRecord
  2
*D16
340
0
  0
ENDTAB
  0
ENDSEC
  0
SECTION
  2
BLOCKS
  0
BLOCK
  5
CD
330
18
100
AcDbEntity
  8
0
100
AcDbBlockBegin
  2
*MODEL_SPACE
 70
     0
 10
0.0
 20
0.0
 30
0.0
  3
*MODEL_SPACE
  1

  0
ENDBLK
  5
CE
330
18
100
AcDbEntity
  8
0
100
AcDbBlockEnd
  0
BLOCK
  5
CB
330
15
100
AcDbEntity
 67
     1
  8
0
100
AcDbBlockBegin
  2
*PAPER_SPACE
 70
     0
 10
0.0
 20
0.0
 30
0.0
  3
*PAPER_SPACE
  1

  0
ENDBLK
  5
CC
330
15
100
AcDbEntity
 67
     1
  8
0
100
AcDbBlockEnd
  0
BLOCK
  5
D0
330
A5
100
AcDbEntity
  8
0
100
AcDbBlockBegin
  2
*D0
 70
     1
 10
0.0
 20
0.0
 30
0.0
  3
*D0
  1

  0
LINE
  5
D1
330
A5
100
AcDbEntity
  8
0
  6
ByBlock
 62
     0
100
AcDbLine
 10
0.7799782162425757
 20
-12.53151459938381
 30
0.0
 11
-0.2715072093204638
 21
-12.53151459938381
 31
0.0
  0
LINE
  5
D2
330
A5
100
AcDbEntity
  8
0
  6
ByBlock
 62
     0
100
AcDbLine
 10
1.154978216242575
 20
-17.03151459938381
 30
0.0
 11
-0.2715072093204642
 21
-17.03151459938381
 31
0.0
  0
LINE
  5
D3
330
A5
100
AcDbEntity
  8
0
  6
ByBlock
 62
     0
100
AcDbLine
 10
-0.0915072093204639
 20
-12.53151459938381
 30
0.0
 11
-0.091507209320464
 21
-14.38568126605048
 31
0.0
  0
LINE
  5
D4
330
A5
100
AcDbEntity
  8
0
  6
ByBlock
 62
     0
100
AcDbLine
 10
-0.0915072093204642
 20
-17.03151459938381
 30
0.0
 11
-0.091507209320464
 21
-15.17734793271714
 31
0.0
  0
LINE
  5
D5
330
A5
100
AcDbEntity
  8
0
  6
ByBlock
 62
     0
100
AcDbLine
 10
0.0334927906795361
 20
-12.65651459938381
 30
0.0
 11
-0.2165072093204638
 21
-12.40651459938381
 31
0.0
  0
LINE
  5
D6
330
A5
100
AcDbEntity
  8
0
  6
ByBlock
 62
     0
100
AcDbLine
 10
0.0334927906795359
 20
-17.15651459938381
 30
0.0
 11
-0.2165072093204641
 21
-16.90651459938381
 31
0.0
  0
TEXT
  5
D7
330
A5
100
AcDbEntity
  8
0
  6
ByBlock
 62
     0
100
AcDbText
 10
-0.029007209320464
 20
-15.05234793271714
 30
0.0
 40
0.125
  1
4 1/2
 50
90.0
 72
     1
 11
-0.091507209320464
 21
-14.78151459938381
 31
0.0
100
AcDbText
 73
     2
  0
POINT
  5
D8
330
A5
100
AcDbEntity
  8
DEFPOINTS
  6
ByBlock
 62
     0
100
AcDbPoint
 10
0.8424782162425756
 20
-12.53151459938381
 30
0.0
  0
POINT
  5
D9
330
A5
100
AcDbEntity
  8
DEFPOINTS
  6
ByBlock
 62
     0
100
AcDbPoint
 10
1.217478216242575
 20
-17.03151459938381
 30
0.0
  0
POINT
  5
DA
330
A5
100
AcDbEntity
  8
DEFPOINTS
  6
ByBlock
 62
     0
100
AcDbPoint
 10
-0.0915072093204642
 20
-17.03151459938381
 30
0.0
  0
ENDBLK
  5
DB
330
A5
100
AcDbEntity
  8
0
100
AcDbBlockEnd
  0
BLOCK
  5
DC
330
A6
100
AcDbEntity
  8
0
100
AcDbBlockBegin
  2
*D1
 70
     1
 10
0.0
 20
0.0
 30
0.0
  3
*D1
  1

  0
LINE
  5
DD
330
A6
100
AcDbEntity
  8
0
  6
ByBlock
 62
     0
100
AcDbLine
 10
2.592478216242575
 20
-16.78151459938381
 30
0.0
 11
5.547968939034372
 21
-16.78151459938381
 31
0.0
  0
LINE
  5
DE
330
A6
100
AcDbEntity
  8
0
  6
ByBlock
 62
     0
100
AcDbLine
 10
2.592478216242575
 20
-12.78151459938381
 30
0.0
 11
5.547968939034372
 21
-12.78151459938381
 31
0.0
  0
LINE
  5
DF
330
A6
100
AcDbEntity
  8
0
  6
ByBlock
 62
     0
100
AcDbLine
 10
5.367968939034371
 20
-16.78151459938381
 30
0.0
 11
5.367968939034371
 21
-14.94818126605047
 31
0.0
  0
LINE
  5
E0
330
A6
100
AcDbEntity
  8
0
  6
ByBlock
 62
     0
100
AcDbLine
 10
5.367968939034371
 20
-12.78151459938381
 30
0.0
 11
5.367968939034371
 21
-14.61484793271714
 31
0.0
  0
LINE
  5
E1
330
A6
100
AcDbEntity
  8
0
  6
ByBlock
 62
     0
100
AcDbLine
 10
5.492968939034371
 20
-16.90651459938381
 30
0.0
 11
5.242968939034371
 21
-16.65651459938381
 31
0.0
  0
LINE
  5
E2
330
A6
100
AcDbEntity
  8
0
  6
ByBlock
 62
     0
100
AcDbLine
 10
5.492968939034371
 20
-12.90651459938381
 30
0.0
 11
5.242968939034371
 21
-12.65651459938381
 31
0.0
  0
TEXT
  5
E3
330
A6
100
AcDbEntity
  8
0
  6
ByBlock
 62
     0
100
AcDbText
 10
5.430468939034371
 20
-14.82318126605048
 30
0.0
 40
0.125
  1
4
 50
90.0
 72
     1
 11
5.367968939034371
 21
-14.78151459938381
 31
0.0
100
AcDbText
 73
     2
  0
POINT
  5
E4
330
A6
100
AcDbEntity
  8
DEFPOINTS
  6
ByBlock
 62
     0
100
AcDbPoint
 10
2.529978216242575
 20
-16.78151459938381
 30
0.0
  0
POINT
  5
E5
330
A6
100
AcDbEntity
  8
DEFPOINTS
  6
ByBlock
 62
     0
100
AcDbPoint
 10
2.529978216242575
 20
-12.78151459938381
 30
0.0
  0
POINT
  5
E6
330
A6
100
AcDbEntity
  8
DEFPOINTS
  6
ByBlock
 62
     0
100
AcDbPoint
 10
5.367968939034371
 20
-12.78151459938381
 30
0.0
  0
ENDBLK
  5
E7
330
A6
100
AcDbEntity
  8
0
100
AcDbBlockEnd
  0
BLOCK
  5
E8
330
A7
100
AcDbEntity
  8
0
100
AcDbBlockBegin
  2
*D2
 70
     1
 10
0.0
 20
0.0
 30
0.0
  3
*D2
  1

  0
LINE
  5
E9
330
A7
100
AcDbEntity
  8
0
  6
ByBlock
 62
     0
100
AcDbLine
 10
0.7704266066577189
 20
-17.72939528436553
 30
0.0
 11
0.7704266066577189
 21
-20.04637245829815
 31
0.0
  0
LINE
  5
EA
330
A7
100
AcDbEntity
  8
0
  6
ByBlock
 62
     0
100
AcDbLine
 10
4.289529825827432
 20
-17.72939528436553
 30
0.0
 11
4.289529825827432
 21
-20.04637245829815
 31
0.0
  0
LINE
  5
EB
330
A7
100
AcDbEntity
  8
0
  6
ByBlock
 62
     0
100
AcDbLine
 10
0.7704266066577189
 20
-19.86637245829815
 30
0.0
 11
2.134144882909242
 21
-19.86637245829815
 31
0.0
  0
LINE
  5
EC
330
A7
100
AcDbEntity
  8
0
  6
ByBlock
 62
     0
100
AcDbLine
 10
4.289529825827432
 20
-19.86637245829815
 30
0.0
 11
2.925811549575909
 21
-19.86637245829815
 31
0.0
  0
LINE
  5
ED
330
A7
100
AcDbEntity
  8
0
  6
ByBlock
 62
     0
100
AcDbLine
 10
0.6454266066577189
 20
-19.99137245829815
 30
0.0
 11
0.8954266066577188
 21
-19.74137245829815
 31
0.0
  0
LINE
  5
EE
330
A7
100
AcDbEntity
  8
0
  6
ByBlock
 62
     0
100
AcDbLine
 10
4.164529825827432
 20
-19.99137245829815
 30
0.0
 11
4.414529825827432
 21
-19.74137245829815
 31
0.0
  0
TEXT
  5
EF
330
A7
100
AcDbEntity
  8
0
  6
ByBlock
 62
     0
100
AcDbText
 10
2.259144882909242
 20
-19.92887245829815
 30
0.0
 40
0.125
  1
3 1/2
 72
     1
 11
2.529978216242575
 21
-19.86637245829815
 31
0.0
100
AcDbText
 73
     2
  0
POINT
  5
F0
330
A7
100
AcDbEntity
  8
DEFPOINTS
  6
ByBlock
 62
     0
100
AcDbPoint
 10
0.7704266066577189
 20
-17.66689528436553
 30
0.0
  0
POINT
  5
F1
330
A7
100
AcDbEntity
  8
DEFPOINTS
  6
ByBlock
 62
     0
100
AcDbPoint
 10
4.289529825827432
 20
-17.66689528436553
 30
0.0
  0
POINT
  5
F2
330
A7
100
AcDbEntity
  8
DEFPOINTS
  6
ByBlock
 62
     0
100
AcDbPoint
 10
4.289529825827432
 20
-19.86637245829815
 30
0.0
  0
ENDBLK
  5
F3
330
A7
100
AcDbEntity
  8
0
100
AcDbBlockEnd
  0
BLOCK
  5
F4
330
A8
100
AcDbEntity
  8
0
100
AcDbBlockBegin
  2
*D3
 70
     1
 10
0.0
 20
0.0
 30
0.0
  3
*D3
  1

  0
LINE
  5
F5
330
A8
100
AcDbEntity
  8
0
  6
ByBlock
 62
     0
100
AcDbLine
 10
1.217478216242575
 20
-17.09401459938381
 30
0.0
 11
1.217478216242575
 21
-19.27435405806134
 31
0.0
  0
LINE
  5
F6
330
A8
100
AcDbEntity
  8
0
  6
ByBlock
 62
     0
100
AcDbLine
 10
3.842478216242575
 20
-17.09401459938381
 30
0.0
 11
3.842478216242575
 21
-19.27435405806134
 31
0.0
  0
LINE
  5
F7
330
A8
100
AcDbEntity
  8
0
  6
ByBlock
 62
     0
100
AcDbLine
 10
1.217478216242575
 20
-19.09435405806134
 30
0.0
 11
2.113311549575909
 21
-19.09435405806134
 31
0.0
  0
LINE
  5
F8
330
A8
100
AcDbEntity
  8
0
  6
ByBlock
 62
     0
100
AcDbLine
 10
3.842478216242575
 20
-19.09435405806134
 30
0.0
 11
2.946644882909242
 21
-19.09435405806134
 31
0.0
  0
LINE
  5
F9
330
A8
100
AcDbEntity
  8
0
  6
ByBlock
 62
     0
100
AcDbLine
 10
1.092478216242575
 20
-19.21935405806134
 30
0.0
 11
1.342478216242575
 21
-18.96935405806134
 31
0.0
  0
LINE
  5
FA
330
A8
100
AcDbEntity
  8
0
  6
ByBlock
 62
     0
100
AcDbLine
 10
3.717478216242575
 20
-19.21935405806134
 30
0.0
 11
3.967478216242575
 21
-18.96935405806134
 31
0.0
  0
TEXT
  5
FB
330
A8
100
AcDbEntity
  8
0
  6
ByBlock
 62
     0
100
AcDbText
 10
2.238311549575909
 20
-19.15685405806134
 30
0.0
 40
0.125
  1
2 5/8
 72
     1
 11
2.529978216242575
 21
-19.09435405806134
 31
0.0
100
AcDbText
 73
     2
  0
POINT
  5
FC
330
A8
100
AcDbEntity
  8
DEFPOINTS
  6
ByBlock
 62
     0
100
AcDbPoint
 10
1.217478216242575
 20
-17.03151459938381
 30
0.0
  0
POINT
  5
FD
330
A8
100
AcDbEntity
  8
DEFPOINTS
  6
ByBlock
 62
     0
100
AcDbPoint
 10
3.842478216242575
 20
-17.03151459938381
 30
0.0
  0
POINT
  5
FE
330
A8
100
AcDbEntity
  8
DEFPOINTS
  6
ByBlock
 62
     0
100
AcDbPoint
 10
3.842478216242575
 20
-19.09435405806134
 30
0.0
  0
ENDBLK
  5
FF
330
A8
100
AcDbEntity
  8
0
100
AcDbBlockEnd
  0
BLOCK
  5
100
330
A9
100
AcDbEntity
  8
0
100
AcDbBlockBegin
  2
*D4
 70
     1
 10
0.0
 20
0.0
 30
0.0
  3
*D4
  1

  0
LINE
  5
101
330
A9
100
AcDbEntity
  8
0
  6
ByBlock
 62
     0
100
AcDbLine
 10
0.2174782162425756
 20
0.579925286918193
 30
0.0
 11
-0.0660724329685159
 21
0.579925286918193
 31
0.0
  0
LINE
  5
102
330
A9
100
AcDbEntity
  8
0
  6
ByBlock
 62
     0
100
AcDbLine
 10
2.467478216242575
 20
-0.982574713081807
 30
0.0
 11
-0.0660724329685159
 21
-0.9825747130818069
 31
0.0
  0
LINE
  5
103
330
A9
100
AcDbEntity
  8
0
  6
ByBlock
 62
     0
100
AcDbLine
 10
0.1139275670314841
 20
0.579925286918193
 30
0.0
 11
0.1139275670314841
 21
0.236175286918193
 31
0.0
  0
LINE
  5
104
330
A9
100
AcDbEntity
  8
0
  6
ByBlock
 62
     0
100
AcDbLine
 10
0.1139275670314841
 20
-0.9825747130818069
 30
0.0
 11
0.1139275670314841
 21
-0.638824713081807
 31
0.0
  0
LINE
  5
105
330
A9
100
AcDbEntity
  8
0
  6
ByBlock
 62
     0
100
AcDbLine
 10
0.2389275670314841
 20
0.454925286918193
 30
0.0
 11
-0.0110724329685159
 21
0.704925286918193
 31
0.0
  0
LINE
  5
106
330
A9
100
AcDbEntity
  8
0
  6
ByBlock
 62
     0
100
AcDbLine
 10
0.2389275670314841
 20
-1.107574713081806
 30
0.0
 11
-0.011072432968516
 21
-0.8575747130818069
 31
0.0
  0
TEXT
  5
107
330
A9
100
AcDbEntity
  8
0
  6
ByBlock
 62
     0
100
AcDbText
 10
0.1764275670314841
 20
-0.513824713081807
 30
0.0
 40
0.125
  1
1 9/16
 50
90.0
 72
     1
 11
0.1139275670314841
 21
-0.201324713081807
 31
0.0
100
AcDbText
 73
     2
  0
POINT
  5
108
330
A9
100
AcDbEntity
  8
DEFPOINTS
  6
ByBlock
 62
     0
100
AcDbPoint
 10
0.2799782162425757
 20
0.579925286918193
 30
0.0
  0
POINT
  5
109
330
A9
100
AcDbEntity
  8
DEFPOINTS
  6
ByBlock
 62
     0
100
AcDbPoint
 10
2.529978216242575
 20
-0.982574713081807
 30
0.0
  0
POINT
  5
10A
330
A9
100
AcDbEntity
  8
DEFPOINTS
  6
ByBlock
 62
     0
100
AcDbPoint
 10
0.1139275670314841
 20
-0.9825747130818069
 30
0.0
  0
ENDBLK
  5
10B
330
A9
100
AcDbEntity
  8
0
100
AcDbBlockEnd
  0
BLOCK
  5
10C
330
AA
100
AcDbEntity
  8
0
100
AcDbBlockBegin
  2
*D5
 70
     1
 10
0.0
 20
0.0
 30
0.0
  3
*D5
  1

  0
LINE
  5
10D
330
AA
100
AcDbEntity
  8
0
  6
ByBlock
 62
     0
100
AcDbLine
 10
0.8424782162425756
 20
-12.46901459938381
 30
0.0
 11
0.8424782162425756
 21
-11.23277049105827
 31
0.0
  0
LINE
  5
10E
330
AA
100
AcDbEntity
  8
0
  6
ByBlock
 62
     0
100
AcDbLine
 10
4.217478216242575
 20
-12.46901459938381
 30
0.0
 11
4.217478216242575
 21
-11.23277049105827
 31
0.0
  0
LINE
  5
10F
330
AA
100
AcDbEntity
  8
0
  6
ByBlock
 62
     0
100
AcDbLine
 10
0.8424782162425756
 20
-11.41277049105827
 30
0.0
 11
2.113311549575909
 21
-11.41277049105827
 31
0.0
  0
LINE
  5
110
330
AA
100
AcDbEntity
  8
0
  6
ByBlock
 62
     0
100
AcDbLine
 10
4.217478216242575
 20
-11.41277049105827
 30
0.0
 11
2.946644882909242
 21
-11.41277049105827
 31
0.0
  0
LINE
  5
111
330
AA
100
AcDbEntity
  8
0
  6
ByBlock
 62
     0
100
AcDbLine
 10
0.7174782162425757
 20
-11.53777049105827
 30
0.0
 11
0.9674782162425756
 21
-11.28777049105827
 31
0.0
  0
LINE
  5
112
330
AA
100
AcDbEntity
  8
0
  6
ByBlock
 62
     0
100
AcDbLine
 10
4.092478216242575
 20
-11.53777049105827
 30
0.0
 11
4.342478216242575
 21
-11.28777049105827
 31
0.0
  0
TEXT
  5
113
330
AA
100
AcDbEntity
  8
0
  6
ByBlock
 62
     0
100
AcDbText
 10
2.238311549575909
 20
-11.47527049105827
 30
0.0
 40
0.125
  1
3 3/8
 72
     1
 11
2.529978216242575
 21
-11.41277049105827
 31
0.0
100
AcDbText
 73
     2
  0
POINT
  5
114
330
AA
100
AcDbEntity
  8
DEFPOINTS
  6
ByBlock
 62
     0
100
AcDbPoint
 10
0.8424782162425756
 20
-12.53151459938381
 30
0.0
  0
POINT
  5
115
330
AA
100
AcDbEntity
  8
DEFPOINTS
  6
ByBlock
 62
     0
100
AcDbPoint
 10
4.217478216242575
 20
-12.53151459938381
 30
0.0
  0
POINT
  5
116
330
AA
100
AcDbEntity
  8
DEFPOINTS
  6
ByBlock
 62
     0
100
AcDbPoint
 10
4.217478216242575
 20
-11.41277049105827
 30
0.0
  0
ENDBLK
  5
117
330
AA
100
AcDbEntity
  8
0
100
AcDbBlockEnd
  0
BLOCK
  5
118
330
AB
100
AcDbEntity
  8
0
100
AcDbBlockBegin
  2
*D6
 70
     1
 10
0.0
 20
0.0
 30
0.0
  3
*D6
  1

  0
LINE
  5
119
330
AB
100
AcDbEntity
  8
0
  6
ByBlock
 62
     0
100
AcDbLine
 10
2.592478216242575
 20
-12.78151459938381
 30
0.0
 11
5.547968939034372
 21
-12.78151459938381
 31
0.0
  0
LINE
  5
11A
330
AB
100
AcDbEntity
  8
0
  6
ByBlock
 62
     0
100
AcDbLine
 10
3.401978216242575
 20
-3.531514599383811
 30
0.0
 11
5.547968939034372
 21
-3.531514599383811
 31
0.0
  0
LINE
  5
11B
330
AB
100
AcDbEntity
  8
0
  6
ByBlock
 62
     0
100
AcDbLine
 10
5.367968939034371
 20
-12.78151459938381
 30
0.0
 11
5.367968939034371
 21
-8.552347932717145
 31
0.0
  0
LINE
  5
11C
330
AB
100
AcDbEntity
  8
0
  6
ByBlock
 62
     0
100
AcDbLine
 10
5.367968939034372
 20
-3.531514599383811
 30
0.0
 11
5.367968939034371
 21
-7.760681266050478
 31
0.0
  0
LINE
  5
11D
330
AB
100
AcDbEntity
  8
0
  6
ByBlock
 62
     0
100
AcDbLine
 10
5.492968939034371
 20
-12.90651459938381
 30
0.0
 11
5.242968939034371
 21
-12.65651459938381
 31
0.0
  0
LINE
  5
11E
330
AB
100
AcDbEntity
  8
0
  6
ByBlock
 62
     0
100
AcDbLine
 10
5.492968939034372
 20
-3.656514599383811
 30
0.0
 11
5.242968939034372
 21
-3.406514599383811
 31
0.0
  0
TEXT
  5
11F
330
AB
100
AcDbEntity
  8
0
  6
ByBlock
 62
     0
100
AcDbText
 10
5.430468939034371
 20
-8.427347932717145
 30
0.0
 40
0.125
  1
9 1/4
 50
90.0
 72
     1
 11
5.367968939034371
 21
-8.156514599383811
 31
0.0
100
AcDbText
 73
     2
  0
POINT
  5
120
330
AB
100
AcDbEntity
  8
DEFPOINTS
  6
ByBlock
 62
     0
100
AcDbPoint
 10
2.529978216242575
 20
-12.78151459938381
 30
0.0
  0
POINT
  5
121
330
AB
100
AcDbEntity
  8
DEFPOINTS
  6
ByBlock
 62
     0
100
AcDbPoint
 10
3.339478216242575
 20
-3.531514599383811
 30
0.0
  0
POINT
  5
122
330
AB
100
AcDbEntity
  8
DEFPOINTS
  6
ByBlock
 62
     0
100
AcDbPoint
 10
5.367968939034372
 20
-3.531514599383811
 30
0.0
  0
ENDBLK
  5
123
330
AB
100
AcDbEntity
  8
0
100
AcDbBlockEnd
  0
BLOCK
  5
124
330
AC
100
AcDbEntity
  8
0
100
AcDbBlockBegin
  2
*D7
 70
     1
 10
0.0
 20
0.0
 30
0.0
  3
*D7
  1

  0
LINE
  5
125
330
AC
100
AcDbEntity
  8
0
  6
ByBlock
 62
     0
100
AcDbLine
 10
4.842478216242575
 20
0.579925286918193
 30
0.0
 11
5.26356263584195
 21
0.579925286918193
 31
0.0
  0
LINE
  5
126
330
AC
100
AcDbEntity
  8
0
  6
ByBlock
 62
     0
100
AcDbLine
 10
4.842478216242575
 20
0.892425286918193
 30
0.0
 11
5.26356263584195
 21
0.892425286918193
 31
0.0
  0
LINE
  5
127
330
AC
100
AcDbEntity
  8
0
  6
ByBlock
 62
     0
100
AcDbLine
 10
5.08356263584195
 20
0.579925286918193
 30
0.0
 11
5.08356263584195
 21
0.329925286918193
 31
0.0
  0
LINE
  5
128
330
AC
100
AcDbEntity
  8
0
  6
ByBlock
 62
     0
100
AcDbLine
 10
5.08356263584195
 20
0.892425286918193
 30
0.0
 11
5.08356263584195
 21
1.142425286918193
 31
0.0
  0
LINE
  5
129
330
AC
100
AcDbEntity
  8
0
  6
ByBlock
 62
     0
100
AcDbLine
 10
5.20856263584195
 20
0.454925286918193
 30
0.0
 11
4.95856263584195
 21
0.704925286918193
 31
0.0
  0
LINE
  5
12A
330
AC
100
AcDbEntity
  8
0
  6
ByBlock
 62
     0
100
AcDbLine
 10
5.20856263584195
 20
0.767425286918193
 30
0.0
 11
4.95856263584195
 21
1.017425286918193
 31
0.0
  0
TEXT
  5
12B
330
AC
100
AcDbEntity
  8
0
  6
ByBlock
 62
     0
100
AcDbText
 10
5.14606263584195
 20
1.267425286918193
 30
0.0
 40
0.125
  1
5/16
 50
90.0
 72
     1
 11
5.08356263584195
 21
1.475758620251526
 31
0.0
100
AcDbText
 73
     2
  0
POINT
  5
12C
330
AC
100
AcDbEntity
  8
DEFPOINTS
  6
ByBlock
 62
     0
100
AcDbPoint
 10
4.779978216242575
 20
0.579925286918193
 30
0.0
  0
POINT
  5
12D
330
AC
100
AcDbEntity
  8
DEFPOINTS
  6
ByBlock
 62
     0
100
AcDbPoint
 10
4.779978216242575
 20
0.892425286918193
 30
0.0
  0
POINT
  5
12E
330
AC
100
AcDbEntity
  8
DEFPOINTS
  6
ByBlock
 62
     0
100
AcDbPoint
 10
5.08356263584195
 20
0.892425286918193
 30
0.0
  0
ENDBLK
  5
12F
330
AC
100
AcDbEntity
  8
0
100
AcDbBlockEnd
  0
BLOCK
  5
130
330
AD
100
AcDbEntity
  8
0
100
AcDbBlockBegin
  2
*D8
 70
     1
 10
0.0
 20
0.0
 30
0.0
  3
*D8
  1

  0
LINE
  5
131
330
AD
100
AcDbEntity
  8
0
  6
ByBlock
 62
     0
100
AcDbLine
 10
7.722624671292996
 20
-3.531514599383811
 30
0.0
 11
7.133903259834309
 21
-3.531514599383811
 31
0.0
  0
LINE
  5
132
330
AD
100
AcDbEntity
  8
0
  6
ByBlock
 62
     0
100
AcDbLine
 10
7.722624671292996
 20
-18.53151459938381
 30
0.0
 11
7.133903259834308
 21
-18.53151459938381
 31
0.0
  0
LINE
  5
133
330
AD
100
AcDbEntity
  8
0
  6
ByBlock
 62
     0
100
AcDbLine
 10
7.313903259834309
 20
-3.531514599383811
 30
0.0
 11
7.313903259834308
 21
-10.82318126605048
 31
0.0
  0
LINE
  5
134
330
AD
100
AcDbEntity
  8
0
  6
ByBlock
 62
     0
100
AcDbLine
 10
7.313903259834308
 20
-18.53151459938381
 30
0.0
 11
7.313903259834308
 21
-11.23984793271714
 31
0.0
  0
LINE
  5
135
330
AD
100
AcDbEntity
  8
0
  6
ByBlock
 62
     0
100
AcDbLine
 10
7.438903259834309
 20
-3.656514599383811
 30
0.0
 11
7.188903259834309
 21
-3.406514599383811
 31
0.0
  0
LINE
  5
136
330
AD
100
AcDbEntity
  8
0
  6
ByBlock
 62
     0
100
AcDbLine
 10
7.438903259834308
 20
-18.65651459938381
 30
0.0
 11
7.188903259834308
 21
-18.40651459938381
 31
0.0
  0
TEXT
  5
137
330
AD
100
AcDbEntity
  8
0
  6
ByBlock
 62
     0
100
AcDbText
 10
7.376403259834308
 20
-11.11484793271714
 30
0.0
 40
0.125
  1
15
 50
90.0
 72
     1
 11
7.313903259834308
 21
-11.03151459938381
 31
0.0
100
AcDbText
 73
     2
  0
POINT
  5
138
330
AD
100
AcDbEntity
  8
DEFPOINTS
  6
ByBlock
 62
     0
100
AcDbPoint
 10
7.785124671292996
 20
-3.531514599383811
 30
0.0
  0
POINT
  5
139
330
AD
100
AcDbEntity
  8
DEFPOINTS
  6
ByBlock
 62
     0
100
AcDbPoint
 10
7.785124671292996
 20
-18.53151459938381
 30
0.0
  0
POINT
  5
13A
330
AD
100
AcDbEntity
  8
DEFPOINTS
  6
ByBlock
 62
     0
100
AcDbPoint
 10
7.313903259834308
 20
-18.53151459938381
 30
0.0
  0
ENDBLK
  5
13B
330
AD
100
AcDbEntity
  8
0
100
AcDbBlockEnd
  0
BLOCK
  5
13C
330
AE
100
AcDbEntity
  8
0
100
AcDbBlockBegin
  2
*D9
 70
     1
 10
0.0
 20
0.0
 30
0.0
  3
*D9
  1

  0
LINE
  5
13D
330
AE
100
AcDbEntity
  8
0
  6
ByBlock
 62
     0
100
AcDbLine
 10
11.51162440429364
 20
-11.78151459938381
 30
0.0
 11
11.9884516298823
 21
-11.78151459938381
 31
0.0
  0
LINE
  5
13E
330
AE
100
AcDbEntity
  8
0
  6
ByBlock
 62
     0
100
AcDbLine
 10
11.51162440429364
 20
-17.78151459938381
 30
0.0
 11
11.9884516298823
 21
-17.78151459938381
 31
0.0
  0
LINE
  5
13F
330
AE
100
AcDbEntity
  8
0
  6
ByBlock
 62
     0
100
AcDbLine
 10
11.8084516298823
 20
-11.78151459938381
 30
0.0
 11
11.8084516298823
 21
-14.61484793271714
 31
0.0
  0
LINE
  5
140
330
AE
100
AcDbEntity
  8
0
  6
ByBlock
 62
     0
100
AcDbLine
 10
11.8084516298823
 20
-17.78151459938381
 30
0.0
 11
11.8084516298823
 21
-14.94818126605047
 31
0.0
  0
LINE
  5
141
330
AE
100
AcDbEntity
  8
0
  6
ByBlock
 62
     0
100
AcDbLine
 10
11.9334516298823
 20
-11.90651459938381
 30
0.0
 11
11.6834516298823
 21
-11.65651459938381
 31
0.0
  0
LINE
  5
142
330
AE
100
AcDbEntity
  8
0
  6
ByBlock
 62
     0
100
AcDbLine
 10
11.9334516298823
 20
-17.90651459938381
 30
0.0
 11
11.6834516298823
 21
-17.65651459938381
 31
0.0
  0
TEXT
  5
143
330
AE
100
AcDbEntity
  8
0
  6
ByBlock
 62
     0
100
AcDbText
 10
11.8709516298823
 20
-14.82318126605048
 30
0.0
 40
0.125
  1
6
 50
90.0
 72
     1
 11
11.8084516298823
 21
-14.78151459938381
 31
0.0
100
AcDbText
 73
     2
  0
POINT
  5
144
330
AE
100
AcDbEntity
  8
DEFPOINTS
  6
ByBlock
 62
     0
100
AcDbPoint
 10
11.44912440429364
 20
-11.78151459938381
 30
0.0
  0
POINT
  5
145
330
AE
100
AcDbEntity
  8
DEFPOINTS
  6
ByBlock
 62
     0
100
AcDbPoint
 10
11.44912440429364
 20
-17.78151459938381
 30
0.0
  0
POINT
  5
146
330
AE
100
AcDbEntity
  8
DEFPOINTS
  6
ByBlock
 62
     0
100
AcDbPoint
 10
11.8084516298823
 20
-17.78151459938381
 30
0.0
  0
ENDBLK
  5
147
330
AE
100
AcDbEntity
  8
0
100
AcDbBlockEnd
  0
BLOCK
  5
148
330
AF
100
AcDbEntity
  8
0
100
AcDbBlockBegin
  2
*D10
 70
     1
 10
0.0
 20
0.0
 30
0.0
  3
*D10
  1

  0
LINE
  5
149
330
AF
100
AcDbEntity
  8
0
  6
ByBlock
 62
     0
100
AcDbLine
 10
11.57412440429363
 20
-17.78151459938381
 30
0.0
 11
11.9884516298823
 21
-17.78151459938381
 31
0.0
  0
LINE
  5
14A
330
AF
100
AcDbEntity
  8
0
  6
ByBlock
 62
     0
100
AcDbLine
 10
9.518148953260256
 20
-18.53151459938381
 30
0.0
 11
11.9884516298823
 21
-18.53151459938381
 31
0.0
  0
LINE
  5
14B
330
AF
100
AcDbEntity
  8
0
  6
ByBlock
 62
     0
100
AcDbLine
 10
11.8084516298823
 20
-17.78151459938381
 30
0.0
 11
11.8084516298823
 21
-17.53151459938381
 31
0.0
  0
LINE
  5
14C
330
AF
100
AcDbEntity
  8
0
  6
ByBlock
 62
     0
100
AcDbLine
 10
11.8084516298823
 20
-18.53151459938381
 30
0.0
 11
11.8084516298823
 21
-18.78151459938381
 31
0.0
  0
LINE
  5
14D
330
AF
100
AcDbEntity
  8
0
  6
ByBlock
 62
     0
100
AcDbLine
 10
11.9334516298823
 20
-17.90651459938381
 30
0.0
 11
11.6834516298823
 21
-17.65651459938381
 31
0.0
  0
LINE
  5
14E
330
AF
100
AcDbEntity
  8
0
  6
ByBlock
 62
     0
100
AcDbLine
 10
11.9334516298823
 20
-18.65651459938381
 30
0.0
 11
11.6834516298823
 21
-18.40651459938381
 31
0.0
  0
TEXT
  5
14F
330
AF
100
AcDbEntity
  8
0
  6
ByBlock
 62
     0
100
AcDbText
 10
11.8709516298823
 20
-19.23984793271715
 30
0.0
 40
0.125
  1
3/4
 50
90.0
 72
     1
 11
11.8084516298823
 21
-19.07318126605048
 31
0.0
100
AcDbText
 73
     2
  0
POINT
  5
150
330
AF
100
AcDbEntity
  8
DEFPOINTS
  6
ByBlock
 62
     0
100
AcDbPoint
 10
11.51162440429364
 20
-17.78151459938381
 30
0.0
  0
POINT
  5
151
330
AF
100
AcDbEntity
  8
DEFPOINTS
  6
ByBlock
 62
     0
100
AcDbPoint
 10
9.455648953260256
 20
-18.53151459938381
 30
0.0
  0
POINT
  5
152
330
AF
100
AcDbEntity
  8
DEFPOINTS
  6
ByBlock
 62
     0
100
AcDbPoint
 10
11.8084516298823
 20
-18.53151459938381
 30
0.0
  0
ENDBLK
  5
153
330
AF
100
AcDbEntity
  8
0
100
AcDbBlockEnd
  0
BLOCK
  5
32C
330
321
100
AcDbEntity
  8
0
 62
     3
100
AcDbBlockBegin
  2
*D11
 70
     1
 10
0.0
 20
0.0
 30
0.0
  3
*D11
  1

  0
LINE
  5
3DA
330
321
100
AcDbEntity
  8
ADPDIM
 62
     0
370
    -2
100
AcDbLine
 10
9.477148953260256
 20
-18.53151459938381
 30
0.0
 11
11.98742605587121
 21
-18.53151459938381
 31
0.0
  0
LINE
  5
3DB
330
321
100
AcDbEntity
  8
ADPDIM
 62
     0
370
    -2
100
AcDbLine
 10
9.477148953260256
 20
-18.03151459938381
 30
0.0
 11
11.98742605587121
 21
-18.03151459938381
 31
0.0
  0
LINE
  5
3DC
330
321
100
AcDbEntity
  8
ADPDIM
 62
     0
370
    -2
100
AcDbLine
 10
11.80742605587122
 20
-18.03151459938381
 30
0.0
 11
11.80742605587122
 21
-18.53151459938381
 31
0.0
  0
LINE
  5
3DD
330
321
100
AcDbEntity
  8
ADPDIM
 62
     0
370
    -2
100
AcDbLine
 10
11.80742605587122
 20
-18.53151459938381
 30
0.0
 11
11.80742605587122
 21
-18.90651459938381
 31
0.0
  0
LINE
  5
3DE
330
321
100
AcDbEntity
  8
ADPDIM
 62
     0
370
    -2
100
AcDbLine
 10
11.93242605587122
 20
-18.65651459938381
 30
0.0
 11
11.68242605587122
 21
-18.40651459938381
 31
0.0
  0
LINE
  5
3DF
330
321
100
AcDbEntity
  8
ADPDIM
 62
     0
370
    -2
100
AcDbLine
 10
11.93242605587122
 20
-18.15651459938381
 30
0.0
 11
11.68242605587122
 21
-17.90651459938381
 31
0.0
  0
MTEXT
  5
3E0
330
321
100
AcDbEntity
  8
ADPDIM
 62
     0
100
AcDbMText
 10
11.80742605587122
 20
-19.17734793271714
 30
0.0
 40
0.125
 41
0.0
 71
     5
 72
     1
  1
\A1;1/2
 11
0.0000000000000001
 21
1.0
 31
0.0
 73
     1
 44
1.0
1001
ACAD
1000
MTEXTBEGIN
1070
    73
1070
     1
1070
    44
1040
1.0
1070
    74
1070
     0
1000
MTEXTEND
  0
POINT
  5
3E1
330
321
100
AcDbEntity
  8
DEFPOINTS
 62
     0
100
AcDbPoint
 10
9.414648953260256
 20
-18.53151459938381
 30
0.0
  0
POINT
  5
3E2
330
321
100
AcDbEntity
  8
DEFPOINTS
 62
     0
100
AcDbPoint
 10
9.414648953260256
 20
-18.03151459938381
 30
0.0
  0
POINT
  5
3E3
330
321
100
AcDbEntity
  8
DEFPOINTS
 62
     0
100
AcDbPoint
 10
11.80742605587122
 20
-18.03151459938381
 30
0.0
  0
ENDBLK
  5
32D
330
321
100
AcDbEntity
  8
0
 62
     3
100
AcDbBlockEnd
  0
BLOCK
  5
339
330
32E
100
AcDbEntity
  8
0
100
AcDbBlockBegin
  2
*D12
 70
     1
 10
0.0
 20
0.0
 30
0.0
  3
*D12
  1

  0
LINE
  5
3D0
330
32E
100
AcDbEntity
  8
ADPDIM
 62
     0
370
    -2
100
AcDbLine
 10
0.7735857476550266
 20
-12.7808629818084
 30
0.0
 11
-0.2778996779080122
 21
-12.7808629818084
 31
0.0
  0
LINE
  5
3D1
330
32E
100
AcDbEntity
  8
ADPDIM
 62
     0
370
    -2
100
AcDbLine
 10
1.148585747655026
 20
-17.2808629818084
 30
0.0
 11
-0.2778996779080132
 21
-17.2808629818084
 31
0.0
  0
LINE
  5
3D2
330
32E
100
AcDbEntity
  8
ADPDIM
 62
     0
370
    -2
100
AcDbLine
 10
-0.0978996779080123
 20
-12.7808629818084
 30
0.0
 11
-0.0978996779080127
 21
-14.63502964847507
 31
0.0
  0
LINE
  5
3D3
330
32E
100
AcDbEntity
  8
ADPDIM
 62
     0
370
    -2
100
AcDbLine
 10
-0.0978996779080133
 20
-17.2808629818084
 30
0.0
 11
-0.0978996779080129
 21
-15.42669631514174
 31
0.0
  0
LINE
  5
3D4
330
32E
100
AcDbEntity
  8
ADPDIM
 62
     0
370
    -2
100
AcDbLine
 10
0.0271003220919867
 20
-17.4058629818084
 30
0.0
 11
-0.2228996779080133
 21
-17.1558629818084
 31
0.0
  0
LINE
  5
3D5
330
32E
100
AcDbEntity
  8
ADPDIM
 62
     0
370
    -2
100
AcDbLine
 10
0.0271003220919877
 20
-12.9058629818084
 30
0.0
 11
-0.2228996779080123
 21
-12.6558629818084
 31
0.0
  0
MTEXT
  5
3D6
330
32E
100
AcDbEntity
  8
ADPDIM
 62
     0
100
AcDbMText
 10
-0.0978996779080104
 20
-15.0308629818084
 30
0.0
 40
0.125
 41
0.0
 71
     5
 72
     1
  1
\A1;4 1/2
 11
0.0000000000000001
 21
1.0
 31
0.0
 73
     1
 44
1.0
1001
ACAD
1000
MTEXTBEGIN
1070
    73
1070
     1
1070
    44
1040
1.0
1070
    74
1070
     0
1000
MTEXTEND
  0
POINT
  5
3D7
330
32E
100
AcDbEntity
  8
DEFPOINTS
 62
     0
100
AcDbPoint
 10
0.8360857476550265
 20
-12.7808629818084
 30
0.0
  0
POINT
  5
3D8
330
32E
100
AcDbEntity
  8
DEFPOINTS
 62
     0
100
AcDbPoint
 10
1.211085747655026
 20
-17.2808629818084
 30
0.0
  0
POINT
  5
3D9
330
32E
100
AcDbEntity
  8
DEFPOINTS
 62
     0
100
AcDbPoint
 10
-0.0978996779080133
 20
-17.2808629818084
 30
0.0
  0
ENDBLK
  5
33A
330
32E
100
AcDbEntity
  8
0
100
AcDbBlockEnd
  0
BLOCK
  5
346
330
33B
100
AcDbEntity
  8
0
100
AcDbBlockBegin
  2
*D13
 70
     1
 10
0.0
 20
0.0
 30
0.0
  3
*D13
  1

  0
LINE
  5
3B2
330
33B
100
AcDbEntity
  8
ADPDIM
 62
     0
370
    -2
100
AcDbLine
 10
1.211085747655026
 20
-17.3433629818084
 30
0.0
 11
1.211085747655026
 21
-19.52370244048594
 31
0.0
  0
LINE
  5
3B3
330
33B
100
AcDbEntity
  8
ADPDIM
 62
     0
370
    -2
100
AcDbLine
 10
3.836085747655026
 20
-17.3433629818084
 30
0.0
 11
3.836085747655026
 21
-19.52370244048594
 31
0.0
  0
LINE
  5
3B4
330
33B
100
AcDbEntity
  8
ADPDIM
 62
     0
370
    -2
100
AcDbLine
 10
1.211085747655026
 20
-19.34370244048594
 30
0.0
 11
2.10691908098836
 21
-19.34370244048594
 31
0.0
  0
LINE
  5
3B5
330
33B
100
AcDbEntity
  8
ADPDIM
 62
     0
370
    -2
100
AcDbLine
 10
3.836085747655026
 20
-19.34370244048594
 30
0.0
 11
2.940252414321692
 21
-19.34370244048594
 31
0.0
  0
LINE
  5
3B6
330
33B
100
AcDbEntity
  8
ADPDIM
 62
     0
370
    -2
100
AcDbLine
 10
3.711085747655026
 20
-19.46870244048594
 30
0.0
 11
3.961085747655026
 21
-19.21870244048594
 31
0.0
  0
LINE
  5
3B7
330
33B
100
AcDbEntity
  8
ADPDIM
 62
     0
370
    -2
100
AcDbLine
 10
1.086085747655026
 20
-19.46870244048594
 30
0.0
 11
1.336085747655026
 21
-19.21870244048594
 31
0.0
  0
MTEXT
  5
3B8
330
33B
100
AcDbEntity
  8
ADPDIM
 62
     0
100
AcDbMText
 10
2.523585747655026
 20
-19.34370244048594
 30
0.0
 40
0.125
 41
0.0
 71
     5
 72
     1
  1
\A1;2 5/8
 73
     1
 44
1.0
1001
ACAD
1000
MTEXTBEGIN
1070
    73
1070
     1
1070
    44
1040
1.0
1070
    74
1070
     0
1000
MTEXTEND
  0
POINT
  5
3B9
330
33B
100
AcDbEntity
  8
DEFPOINTS
 62
     0
100
AcDbPoint
 10
1.211085747655026
 20
-17.2808629818084
 30
0.0
  0
POINT
  5
3BA
330
33B
100
AcDbEntity
  8
DEFPOINTS
 62
     0
100
AcDbPoint
 10
3.836085747655026
 20
-17.2808629818084
 30
0.0
  0
POINT
  5
3BB
330
33B
100
AcDbEntity
  8
DEFPOINTS
 62
     0
100
AcDbPoint
 10
3.836085747655026
 20
-19.34370244048594
 30
0.0
  0
ENDBLK
  5
347
330
33B
100
AcDbEntity
  8
0
100
AcDbBlockEnd
  0
BLOCK
  5
353
330
348
100
AcDbEntity
  8
0
100
AcDbBlockBegin
  2
*D14
 70
     1
 10
0.0
 20
0.0
 30
0.0
  3
*D14
  1

  0
LINE
  5
3BC
330
348
100
AcDbEntity
  8
ADPDIM
 62
     0
370
    -2
100
AcDbLine
 10
0.7640341380701697
 20
-17.97874366679012
 30
0.0
 11
0.7640341380701697
 21
-20.29572084072275
 31
0.0
  0
LINE
  5
3BD
330
348
100
AcDbEntity
  8
ADPDIM
 62
     0
370
    -2
100
AcDbLine
 10
4.283137357239882
 20
-17.97874366679012
 30
0.0
 11
4.283137357239882
 21
-20.29572084072275
 31
0.0
  0
LINE
  5
3BE
330
348
100
AcDbEntity
  8
ADPDIM
 62
     0
370
    -2
100
AcDbLine
 10
0.7640341380701697
 20
-20.11572084072275
 30
0.0
 11
2.127752414321693
 21
-20.11572084072275
 31
0.0
  0
LINE
  5
3BF
330
348
100
AcDbEntity
  8
ADPDIM
 62
     0
370
    -2
100
AcDbLine
 10
4.283137357239882
 20
-20.11572084072275
 30
0.0
 11
2.91941908098836
 21
-20.11572084072275
 31
0.0
  0
LINE
  5
3C0
330
348
100
AcDbEntity
  8
ADPDIM
 62
     0
370
    -2
100
AcDbLine
 10
4.158137357239882
 20
-20.24072084072275
 30
0.0
 11
4.408137357239882
 21
-19.99072084072275
 31
0.0
  0
LINE
  5
3C1
330
348
100
AcDbEntity
  8
ADPDIM
 62
     0
370
    -2
100
AcDbLine
 10
0.6390341380701697
 20
-20.24072084072275
 30
0.0
 11
0.8890341380701695
 21
-19.99072084072275
 31
0.0
  0
MTEXT
  5
3C2
330
348
100
AcDbEntity
  8
ADPDIM
 62
     0
100
AcDbMText
 10
2.523585747655026
 20
-20.11572084072275
 30
0.0
 40
0.125
 41
0.0
 71
     5
 72
     1
  1
\A1;3 1/2
 73
     1
 44
1.0
1001
ACAD
1000
MTEXTBEGIN
1070
    73
1070
     1
1070
    44
1040
1.0
1070
    74
1070
     0
1000
MTEXTEND
  0
POINT
  5
3C3
330
348
100
AcDbEntity
  8
DEFPOINTS
 62
     0
100
AcDbPoint
 10
0.7640341380701697
 20
-17.91624366679013
 30
0.0
  0
POINT
  5
3C4
330
348
100
AcDbEntity
  8
DEFPOINTS
 62
     0
100
AcDbPoint
 10
4.283137357239882
 20
-17.91624366679012
 30
0.0
  0
POINT
  5
3C5
330
348
100
AcDbEntity
  8
DEFPOINTS
 62
     0
100
AcDbPoint
 10
4.283137357239882
 20
-20.11572084072275
 30
0.0
  0
ENDBLK
  5
354
330
348
100
AcDbEntity
  8
0
100
AcDbBlockEnd
  0
BLOCK
  5
360
330
355
100
AcDbEntity
  8
0
100
AcDbBlockBegin
  2
*D15
 70
     1
 10
0.0
 20
0.0
 30
0.0
  3
*D15
  1

  0
LINE
  5
3C6
330
355
100
AcDbEntity
  8
ADPDIM
 62
     0
370
    -2
100
AcDbLine
 10
0.8360857476550265
 20
-12.7183629818084
 30
0.0
 11
0.8360857476550267
 21
-11.48211887348286
 31
0.0
  0
LINE
  5
3C7
330
355
100
AcDbEntity
  8
ADPDIM
 62
     0
370
    -2
100
AcDbLine
 10
4.211085747655026
 20
-12.7183629818084
 30
0.0
 11
4.211085747655026
 21
-11.48211887348286
 31
0.0
  0
LINE
  5
3C8
330
355
100
AcDbEntity
  8
ADPDIM
 62
     0
370
    -2
100
AcDbLine
 10
0.8360857476550267
 20
-11.66211887348286
 30
0.0
 11
2.10691908098836
 21
-11.66211887348286
 31
0.0
  0
LINE
  5
3C9
330
355
100
AcDbEntity
  8
ADPDIM
 62
     0
370
    -2
100
AcDbLine
 10
4.211085747655026
 20
-11.66211887348286
 30
0.0
 11
2.940252414321692
 21
-11.66211887348286
 31
0.0
  0
LINE
  5
3CA
330
355
100
AcDbEntity
  8
ADPDIM
 62
     0
370
    -2
100
AcDbLine
 10
4.086085747655026
 20
-11.78711887348286
 30
0.0
 11
4.336085747655026
 21
-11.53711887348286
 31
0.0
  0
LINE
  5
3CB
330
355
100
AcDbEntity
  8
ADPDIM
 62
     0
370
    -2
100
AcDbLine
 10
0.7110857476550267
 20
-11.78711887348286
 30
0.0
 11
0.9610857476550267
 21
-11.53711887348286
 31
0.0
  0
MTEXT
  5
3CC
330
355
100
AcDbEntity
  8
ADPDIM
 62
     0
100
AcDbMText
 10
2.523585747655026
 20
-11.66211887348286
 30
0.0
 40
0.125
 41
0.0
 71
     5
 72
     1
  1
\A1;3 3/8
 73
     1
 44
1.0
1001
ACAD
1000
MTEXTBEGIN
1070
    73
1070
     1
1070
    44
1040
1.0
1070
    74
1070
     0
1000
MTEXTEND
  0
POINT
  5
3CD
330
355
100
AcDbEntity
  8
DEFPOINTS
 62
     0
100
AcDbPoint
 10
0.8360857476550265
 20
-12.7808629818084
 30
0.0
  0
POINT
  5
3CE
330
355
100
AcDbEntity
  8
DEFPOINTS
 62
     0
100
AcDbPoint
 10
4.211085747655026
 20
-12.7808629818084
 30
0.0
  0
POINT
  5
3CF
330
355
100
AcDbEntity
  8
DEFPOINTS
 62
     0
100
AcDbPoint
 10
4.211085747655026
 20
-11.66211887348286
 30
0.0
  0
ENDBLK
  5
361
330
355
100
AcDbEntity
  8
0
100
AcDbBlockEnd
  0
BLOCK
  5
36D
330
362
100
AcDbEntity
  8
0
100
AcDbBlockBegin
  2
*D16
 70
     1
 10
0.0
 20
0.0
 30
0.0
  3
*D16
  1

  0
LINE
  5
363
330
362
100
AcDbEntity
  8
ADPDIM
 62
     0
370
    -2
100
AcDbLine
 10
11.50523193570609
 20
-12.0308629818084
 30
0.0
 11
11.98205916129475
 21
-12.0308629818084
 31
0.0
  0
LINE
  5
364
330
362
100
AcDbEntity
  8
ADPDIM
 62
     0
370
    -2
100
AcDbLine
 10
11.50523193570609
 20
-18.0308629818084
 30
0.0
 11
11.98205916129475
 21
-18.0308629818084
 31
0.0
  0
LINE
  5
365
330
362
100
AcDbEntity
  8
ADPDIM
 62
     0
370
    -2
100
AcDbLine
 10
11.80205916129475
 20
-12.0308629818084
 30
0.0
 11
11.80205916129475
 21
-14.86419631514174
 31
0.0
  0
LINE
  5
366
330
362
100
AcDbEntity
  8
ADPDIM
 62
     0
370
    -2
100
AcDbLine
 10
11.80205916129475
 20
-18.0308629818084
 30
0.0
 11
11.80205916129475
 21
-15.19752964847507
 31
0.0
  0
LINE
  5
367
330
362
100
AcDbEntity
  8
ADPDIM
 62
     0
370
    -2
100
AcDbLine
 10
11.92705916129475
 20
-18.1558629818084
 30
0.0
 11
11.67705916129475
 21
-17.9058629818084
 31
0.0
  0
LINE
  5
368
330
362
100
AcDbEntity
  8
ADPDIM
 62
     0
370
    -2
100
AcDbLine
 10
11.92705916129475
 20
-12.1558629818084
 30
0.0
 11
11.67705916129476
 21
-11.9058629818084
 31
0.0
  0
MTEXT
  5
369
330
362
100
AcDbEntity
  8
ADPDIM
 62
     0
100
AcDbMText
 10
11.80205916129476
 20
-15.0308629818084
 30
0.0
 40
0.125
 41
0.0
 71
     5
 72
     1
  1
\A1;6
 11
0.0000000000000001
 21
1.0
 31
0.0
 73
     1
 44
1.0
1001
ACAD
1000
MTEXTBEGIN
1070
    73
1070
     1
1070
    44
1040
1.0
1070
    74
1070
     0
1000
MTEXTEND
  0
POINT
  5
36A
330
362
100
AcDbEntity
  8
DEFPOINTS
 62
     0
100
AcDbPoint
 10
11.44273193570609
 20
-12.0308629818084
 30
0.0
  0
POINT
  5
36B
330
362
100
AcDbEntity
  8
DEFPOINTS
 62
     0
100
AcDbPoint
 10
11.44273193570609
 20
-18.0308629818084
 30
0.0
  0
POINT
  5
36C
330
362
100
AcDbEntity
  8
DEFPOINTS
 62
     0
100
AcDbPoint
 10
11.80205916129475
 20
-18.0308629818084
 30
0.0
  0
ENDBLK
  5
36E
330
362
100
AcDbEntity
  8
0
100
AcDbBlockEnd
  0
ENDSEC
  0
SECTION
  2
ENTITIES
  0
DIMENSION
  5
154
330
18
100
AcDbEntity
  8
ADPDIM
100
AcDbDimension
  2
*D6
 10
5.367968939034372
 20
-3.531514599383811
 30
0.0
 11
5.367968939034371
 21
-8.156514599383811
 31
0.0
 71
     5
 42
-1.0
  3
ADPDIM
100
AcDbAlignedDimension
 13
2.529978216242575
 23
-12.78151459938381
 33
0.0
 14
3.339478216242575
 24
-3.531514599383811
 34
0.0
 50
90.0
100
AcDbRotatedDimension
  0
LINE
  5
155
330
18
100
AcDbEntity
  8
ADP1DETAIL
100
AcDbLine
 10
3.264978216242575
 20
-3.531514599383811
 30
0.0
 11
3.264978216242575
 21
-18.53151459938381
 31
0.0
  0
LINE
  5
156
330
18
100
AcDbEntity
  8
ADP1DETAIL
100
AcDbLine
 10
1.774478216242575
 20
-18.53151459938381
 30
0.0
 11
1.774478216242575
 21
-3.531514599383811
 31
0.0
  0
LINE
  5
157
330
18
100
AcDbEntity
  8
ADP1DETAIL
100
AcDbLine
 10
0.4094356911841129
 20
-12.0308629818084
 30
0.0
 11
1.768085747655026
 21
-12.0308629818084
 31
0.0
  0
LINE
  5
158
330
18
100
AcDbEntity
  8
ADP1DETAIL
100
AcDbLine
 10
0.7640341380701697
 20
-17.91624366679013
 30
0.0
 11
0.2848674714035029
 21
-12.16624366679012
 31
0.0
  0
DIMENSION
  5
159
330
18
100
AcDbEntity
  8
ADPDIM
100
AcDbDimension
  2
*D12
 10
-0.0978996779080133
 20
-17.2808629818084
 30
0.0
 11
-0.0978996779080104
 21
-15.0308629818084
 31
0.0
 70
    32
 71
     5
 42
4.5
  3
ADPDIM
100
AcDbAlignedDimension
 13
0.8360857476550265
 23
-12.7808629818084
 33
0.0
 14
1.211085747655026
 24
-17.2808629818084
 34
0.0
 50
90.0
100
AcDbRotatedDimension
1001
ACAD
1000
DSTYLE
1002
{
1070
   276
1070
     2
1070
   277
1070
     5
1002
}
  0
ARC
  5
15A
330
18
100
AcDbEntity
  8
ADP1DETAIL
100
AcDbCircle
 10
0.4094356911841129
 20
-12.1558629818084
 30
0.0
 40
0.125
100
AcDbArc
 50
90.0
 51
184.7636416907262
  0
DIMENSION
  5
15B
330
18
100
AcDbEntity
  8
ADPDIM
100
AcDbDimension
  2
*D13
 10
3.836085747655026
 20
-19.34370244048594
 30
0.0
 11
2.523585747655026
 21
-19.34370244048594
 31
0.0
 70
    32
 71
     5
 42
2.625
  3
ADPDIM
100
AcDbAlignedDimension
 13
1.211085747655026
 23
-17.2808629818084
 33
0.0
 14
3.836085747655026
 24
-17.2808629818084
 34
0.0
100
AcDbRotatedDimension
1001
ACAD
1000
DSTYLE
1002
{
1070
   276
1070
     2
1070
   277
1070
     5
1002
}
  0
DIMENSION
  5
15C
330
18
100
AcDbEntity
  8
ADPDIM
100
AcDbDimension
  2
*D14
 10
4.283137357239882
 20
-20.11572084072275
 30
0.0
 11
2.523585747655026
 21
-20.11572084072275
 31
0.0
 70
    32
 71
     5
 42
3.519103219169713
  3
ADPDIM
100
AcDbAlignedDimension
 13
0.7640341380701697
 23
-17.91624366679013
 33
0.0
 14
4.283137357239882
 24
-17.91624366679012
 34
0.0
100
AcDbRotatedDimension
1001
ACAD
1000
DSTYLE
1002
{
1070
   276
1070
     2
1070
   277
1070
     5
1002
}
  0
LINE
  5
15D
330
18
100
AcDbEntity
  8
ADP1DETAIL
100
AcDbLine
 10
3.264978216242575
 20
-18.53151459938381
 30
0.0
 11
1.774478216242575
 21
-18.53151459938381
 31
0.0
  0
LINE
  5
15E
330
18
100
AcDbEntity
  8
ADP1DETAIL
100
AcDbLine
 10
3.258585747655026
 20
-12.0308629818084
 30
0.0
 11
4.63773580412594
 21
-12.0308629818084
 31
0.0
  0
DIMENSION
  5
15F
330
18
100
AcDbEntity
  8
ADPDIM
100
AcDbDimension
  2
*D15
 10
4.211085747655026
 20
-11.66211887348286
 30
0.0
 11
2.523585747655026
 21
-11.66211887348286
 31
0.0
 70
    32
 71
     5
 42
3.375
  3
ADPDIM
100
AcDbAlignedDimension
 13
0.8360857476550265
 23
-12.7808629818084
 33
0.0
 14
4.211085747655026
 24
-12.7808629818084
 34
0.0
100
AcDbRotatedDimension
1001
ACAD
1000
DSTYLE
1002
{
1070
   276
1070
     2
1070
   277
1070
     5
1002
}
  0
LINE
  5
160
330
18
100
AcDbEntity
  8
ADP1DETAIL
100
AcDbLine
 10
4.158569137459273
 20
-18.0308629818084
 30
0.0
 11
3.258585747655026
 21
-18.03086298180841
 31
0.0
  0
DIMENSION
  5
161
330
18
100
AcDbEntity
  8
ADPDIM
100
AcDbDimension
  2
*D1
 10
5.367968939034371
 20
-12.78151459938381
 30
0.0
 11
5.367968939034371
 21
-14.78151459938381
 31
0.0
 71
     5
 42
-1.0
  3
ADPDIM
100
AcDbAlignedDimension
 13
2.529978216242575
 23
-16.78151459938381
 33
0.0
 14
2.529978216242575
 24
-12.78151459938381
 34
0.0
 50
90.0
100
AcDbRotatedDimension
  0
LINE
  5
162
330
18
100
AcDbEntity
  8
ADP2DETAIL
  6
HIDDEN2
100
AcDbLine
 10
1.768085747655026
 20
-18.03086298180841
 30
0.0
 11
3.258585747655026
 21
-18.03086298180841
 31
0.0
  0
LINE
  5
163
330
18
100
AcDbEntity
  8
ADP1DETAIL
100
AcDbLine
 10
1.768085747655026
 20
-18.03086298180841
 30
0.0
 11
0.8886023578507796
 21
-18.03086298180841
 31
0.0
  0
CIRCLE
  5
164
330
18
100
AcDbEntity
  8
ADP1DETAIL
100
AcDbCircle
 10
1.211085747655026
 20
-17.2808629818084
 30
0.0
 40
0.21875
  0
ARC
  5
165
330
18
100
AcDbEntity
  8
ADP1DETAIL
100
AcDbCircle
 10
0.8886023578507796
 20
-17.90586298180841
 30
0.0
 40
0.125
100
AcDbArc
 50
184.7636416907262
 51
270.0
  0
CIRCLE
  5
166
330
18
100
AcDbEntity
  8
ADP2DETAIL
  6
HIDDEN2
100
AcDbCircle
 10
2.529978216242575
 20
-16.78151459938381
 30
0.0
 40
0.1875
  0
LINE
  5
167
330
18
100
AcDbEntity
  8
ADP2DETAIL
  6
HIDDEN2
100
AcDbLine
 10
1.768085747655026
 20
-12.0308629818084
 30
0.0
 11
3.258585747655026
 21
-12.0308629818084
 31
0.0
  0
CIRCLE
  5
168
330
18
100
AcDbEntity
  8
ADP1DETAIL
100
AcDbCircle
 10
0.8360857476550265
 20
-12.7808629818084
 30
0.0
 40
0.21875
  0
CIRCLE
  5
169
330
18
100
AcDbEntity
  8
ADP2DETAIL
  6
HIDDEN2
100
AcDbCircle
 10
2.529978216242575
 20
-12.78151459938381
 30
0.0
 40
0.1875
  0
LINE
  5
16A
330
18
100
AcDbEntity
  8
ADP1DETAIL
100
AcDbLine
 10
4.762304023906549
 20
-12.16624366679012
 30
0.0
 11
4.283137357239882
 21
-17.91624366679012
 31
0.0
  0
CIRCLE
  5
16B
330
18
100
AcDbEntity
  8
ADP1DETAIL
100
AcDbCircle
 10
3.836085747655026
 20
-17.2808629818084
 30
0.0
 40
0.21875
  0
ARC
  5
16C
330
18
100
AcDbEntity
  8
ADP1DETAIL
100
AcDbCircle
 10
4.158569137459273
 20
-17.9058629818084
 30
0.0
 40
0.125
100
AcDbArc
 50
270.0
 51
355.2363583092738
  0
CIRCLE
  5
16D
330
18
100
AcDbEntity
  8
ADP1DETAIL
100
AcDbCircle
 10
4.211085747655026
 20
-12.7808629818084
 30
0.0
 40
0.21875
  0
ARC
  5
16E
330
18
100
AcDbEntity
  8
ADP1DETAIL
100
AcDbCircle
 10
4.63773580412594
 20
-12.1558629818084
 30
0.0
 40
0.125
100
AcDbArc
 50
355.2363583092738
 51
90.0
  0
DIMENSION
  5
16F
330
18
100
AcDbEntity
  8
ADPDIM
100
AcDbDimension
  2
*D4
 10
0.1139275670314841
 20
-0.9825747130818069
 30
0.0
 11
0.1139275670314841
 21
-0.201324713081807
 31
0.0
 71
     5
 42
-1.0
  3
ADPDIM
100
AcDbAlignedDimension
 13
0.2799782162425757
 23
0.579925286918193
 33
0.0
 14
2.529978216242575
 24
-0.982574713081807
 34
0.0
 50
90.0
100
AcDbRotatedDimension
  0
LWPOLYLINE
  5
170
330
18
100
AcDbEntity
  8
ADP1DETAIL
100
AcDbPolyline
 90
        4
 70
     1
 43
0.0
 10
0.2799782162425757
 20
0.579925286918193
 10
0.2799782162425757
 20
0.892425286918193
 10
4.779978216242575
 20
0.892425286918193
 10
4.779978216242575
 20
0.579925286918193
  0
LINE
  5
176
330
18
100
AcDbEntity
  8
ADP1DETAIL
100
AcDbLine
 10
3.029978216242575
 20
0.579925286918193
 30
0.0
 11
3.029978216242575
 21
-1.124799992011631
 31
0.0
  0
LINE
  5
177
330
18
100
AcDbEntity
  8
ADP2DETAIL
  6
HIDDEN2
100
AcDbLine
 10
2.343095412608436
 20
-1.003887618028445
 30
0.0
 11
2.343095412608435
 21
0.7501776235863228
 31
0.0
  0
LINE
  5
178
330
18
100
AcDbEntity
  8
ADP2DETAIL
  6
HIDDEN2
100
AcDbLine
 10
2.716861019876716
 20
-1.003887618028446
 30
0.0
 11
2.716861019876716
 21
0.7501776235863228
 31
0.0
  0
LINE
  5
179
330
18
100
AcDbEntity
  8
ADP1DETAIL
100
AcDbLine
 10
2.029978216242575
 20
0.579925286918193
 30
0.0
 11
2.029978216242575
 21
-1.124799992011631
 31
0.0
  0
LINE
  5
17A
330
18
100
AcDbEntity
  8
ADP1DETAIL
100
AcDbLine
 10
1.774478216242575
 20
-3.531514599383811
 30
0.0
 11
3.264978216242575
 21
-3.531514599383811
 31
0.0
  0
CIRCLE
  5
17B
330
18
100
AcDbEntity
  8
ADP1DETAIL
100
AcDbCircle
 10
2.529978216242575
 20
-1.932574713081807
 30
0.0
 40
0.7925
  0
ARC
  5
17C
330
18
100
AcDbEntity
  8
ADP1DETAIL
100
AcDbCircle
 10
2.529978216242575
 20
-1.932574713081807
 30
0.0
 40
0.95
100
AcDbArc
 50
58.24313614070288
 51
121.7568638592971
  0
LINE
  5
17D
330
18
100
AcDbEntity
  8
ADP2DETAIL
  6
HIDDEN2
100
AcDbLine
 10
2.343095412608437
 20
-1.932574713081807
 30
0.0
 11
2.716861019876714
 21
-1.932574713081807
 31
0.0
  0
LINE
  5
17E
330
18
100
AcDbEntity
  8
ADP2DETAIL
  6
HIDDEN2
100
AcDbLine
 10
2.343095412608437
 20
-1.932574713081807
 30
0.0
 11
2.343095412608436
 21
-1.123984074381393
 31
0.0
  0
LINE
  5
17F
330
18
100
AcDbEntity
  8
ADP1DETAIL
100
AcDbLine
 10
2.343095412608436
 20
-1.123984074381393
 30
0.0
 11
2.343095412608436
 21
-1.003887618028445
 31
0.0
  0
LINE
  5
180
330
18
100
AcDbEntity
  8
ADP2DETAIL
  6
HIDDEN2
100
AcDbLine
 10
2.716861019876714
 20
-1.932574713081807
 30
0.0
 11
2.716861019876716
 21
-1.123984074381393
 31
0.0
  0
LINE
  5
181
330
18
100
AcDbEntity
  8
ADP1DETAIL
100
AcDbLine
 10
2.716861019876716
 20
-1.003887618028446
 30
0.0
 11
2.716861019876716
 21
-1.123984074381393
 31
0.0
  0
LINE
  5
182
330
18
100
AcDbEntity
  8
ADP2DETAIL
  6
HIDDEN2
100
AcDbLine
 10
0.6332713121277128
 20
0.892425286918193
 30
0.0
 11
0.6332713121277127
 21
0.579925286918193
 31
0.0
  0
LINE
  5
183
330
18
100
AcDbEntity
  8
ADP2DETAIL
  6
HIDDEN2
100
AcDbLine
 10
1.011543729130428
 20
0.892425286918193
 30
0.0
 11
1.011543729130428
 21
0.579925286918193
 31
0.0
  0
LINE
  5
184
330
18
100
AcDbEntity
  8
ADP2DETAIL
  6
HIDDEN2
100
AcDbLine
 10
1.06758410160708
 20
0.892425286918193
 30
0.0
 11
1.06758410160708
 21
0.579925286918193
 31
0.0
  0
LINE
  5
185
330
18
100
AcDbEntity
  8
ADP2DETAIL
  6
HIDDEN2
100
AcDbLine
 10
1.431846425490631
 20
0.892425286918193
 30
0.0
 11
1.431846425490631
 21
0.579925286918193
 31
0.0
  0
LINE
  5
186
330
18
100
AcDbEntity
  8
ADP2DETAIL
  6
HIDDEN2
100
AcDbLine
 10
2.343095412608435
 20
0.7501776235863228
 30
0.0
 11
2.218095412608435
 21
0.8751776235863227
 31
0.0
  0
LINE
  5
187
330
18
100
AcDbEntity
  8
ADP2DETAIL
  6
HIDDEN2
100
AcDbLine
 10
2.843095412608435
 20
0.8751776235863227
 30
0.0
 11
2.716861019876716
 21
0.7501776235863228
 31
0.0
  0
DIMENSION
  5
188
330
18
100
AcDbEntity
  8
ADPDIM
100
AcDbDimension
  2
*D7
 10
5.08356263584195
 20
0.892425286918193
 30
0.0
 11
5.08356263584195
 21
1.475758620251526
 31
0.0
 71
     5
 42
-1.0
  3
ADPDIM
100
AcDbAlignedDimension
 13
4.779978216242575
 23
0.579925286918193
 33
0.0
 14
4.779978216242575
 24
0.892425286918193
 34
0.0
 50
90.0
100
AcDbRotatedDimension
  0
LINE
  5
189
330
18
100
AcDbEntity
  8
ADP2DETAIL
  6
HIDDEN2
100
AcDbLine
 10
3.631430364696434
 20
0.892425286918193
 30
0.0
 11
3.631430364696433
 21
0.579925286918193
 31
0.0
  0
LINE
  5
18A
330
18
100
AcDbEntity
  8
ADP2DETAIL
  6
HIDDEN2
100
AcDbLine
 10
4.065743056961124
 20
0.892425286918193
 30
0.0
 11
4.065743056961123
 21
0.579925286918193
 31
0.0
  0
LINE
  5
18B
330
18
100
AcDbEntity
  8
ADP2DETAIL
  6
HIDDEN2
100
AcDbLine
 10
4.009702684484472
 20
0.892425286918193
 30
0.0
 11
4.009702684484472
 21
0.579925286918193
 31
0.0
  0
LINE
  5
18C
330
18
100
AcDbEntity
  8
ADP2DETAIL
  6
HIDDEN2
100
AcDbLine
 10
4.415995287725513
 20
0.892425286918193
 30
0.0
 11
4.415995287725513
 21
0.579925286918193
 31
0.0
  0
LINE
  5
18D
330
18
100
AcDbEntity
  8
ADP1DETAIL
100
AcDbLine
 10
9.414648953260256
 20
-3.531514599383811
 30
0.0
 11
9.414648953260256
 21
-12.28151459938381
 31
0.0
  0
DIMENSION
  5
18E
330
18
100
AcDbEntity
  8
ADPDIM
100
AcDbDimension
  2
*D8
 10
7.313903259834308
 20
-18.53151459938381
 30
0.0
 11
7.313903259834308
 21
-11.03151459938381
 31
0.0
 71
     5
 42
-1.0
  3
ADPDIM
100
AcDbAlignedDimension
 13
7.785124671292996
 23
-3.531514599383811
 33
0.0
 14
7.785124671292996
 24
-18.53151459938381
 34
0.0
 50
90.0
100
AcDbRotatedDimension
  0
LINE
  5
18F
330
18
100
AcDbEntity
  8
ADP1DETAIL
100
AcDbLine
 10
7.826124671292996
 20
-18.53151459938381
 30
0.0
 11
7.826124671292996
 21
-3.531514599383811
 31
0.0
  0
DIMENSION
  5
191
330
18
100
AcDbEntity
  8
ADPDIM
100
AcDbDimension
  2
*D16
 10
11.80205916129475
 20
-18.0308629818084
 30
0.0
 11
11.80205916129476
 21
-15.0308629818084
 31
0.0
 70
    32
 71
     5
 42
5.999999999999998
  3
ADPDIM
100
AcDbAlignedDimension
 13
11.44273193570609
 23
-12.0308629818084
 33
0.0
 14
11.44273193570609
 24
-18.0308629818084
 34
0.0
 50
90.0
100
AcDbRotatedDimension
  0
LINE
  5
192
330
18
100
AcDbEntity
  8
ADP1DETAIL
100
AcDbLine
 10
9.414648953260256
 20
-17.28151459938381
 30
0.0
 11
9.414648953260256
 21
-18.53151459938381
 31
0.0
  0
LINE
  5
193
330
18
100
AcDbEntity
  8
ADP1DETAIL
100
AcDbLine
 10
9.414648953260256
 20
-18.53151459938381
 30
0.0
 11
7.826124671292996
 21
-18.53151459938381
 31
0.0
  0
LINE
  5
194
330
18
100
AcDbEntity
  8
ADP2DETAIL
  6
HIDDEN2
100
AcDbLine
 10
8.602624351008968
 20
-12.84815739814109
 30
0.0
 11
11.30176677154658
 21
-12.84815739814108
 31
0.0
  0
LINE
  5
195
330
18
100
AcDbEntity
  8
ADP2DETAIL
  6
HIDDEN2
100
AcDbLine
 10
8.602624351008968
 20
-16.83877037276155
 30
0.0
 11
11.30176677154658
 21
-16.83877037276155
 31
0.0
  0
LINE
  5
196
330
18
100
AcDbEntity
  8
ADP2DETAIL
  6
HIDDEN2
100
AcDbLine
 10
8.602624351008968
 20
-13.22192300540936
 30
0.0
 11
11.30176677154658
 21
-13.22192300540936
 31
0.0
  0
LINE
  5
197
330
18
100
AcDbEntity
  8
ADP2DETAIL
  6
HIDDEN2
100
AcDbLine
 10
8.602624351008968
 20
-17.21253598002983
 30
0.0
 11
11.30176677154658
 21
-17.21253598002983
 31
0.0
  0
LINE
  5
198
330
18
100
AcDbEntity
  8
ADP2DETAIL
  6
HIDDEN2
100
AcDbLine
 10
8.602624351008968
 20
-16.83877037276155
 30
0.0
 11
8.602624351008968
 21
-17.21253598002983
 31
0.0
  0
LINE
  5
199
330
18
100
AcDbEntity
  8
ADP2DETAIL
  6
HIDDEN2
100
AcDbLine
 10
8.602624351008968
 20
-12.84815739814109
 30
0.0
 11
8.602624351008968
 21
-13.22192300540936
 31
0.0
  0
LINE
  5
19A
330
18
100
AcDbEntity
  8
ADP1DETAIL
100
AcDbLine
 10
11.13023193570609
 20
-18.0308629818084
 30
0.0
 11
11.13023193570609
 21
-12.0308629818084
 31
0.0
  0
LINE
  5
19B
330
18
100
AcDbEntity
  8
ADP1DETAIL
100
AcDbLine
 10
11.44273193570609
 20
-12.0308629818084
 30
0.0
 11
11.44273193570609
 21
-18.0308629818084
 31
0.0
  0
LINE
  5
19C
330
18
100
AcDbEntity
  8
ADP2DETAIL
  6
HIDDEN2
100
AcDbLine
 10
9.562170748263232
 20
-12.5308629818084
 30
0.0
 11
9.562170748263232
 21
-17.5308629818084
 31
0.0
  0
LINE
  5
19D
330
18
100
AcDbEntity
  8
ADP1DETAIL
100
AcDbLine
 10
9.414648953260256
 20
-16.37065398781533
 30
0.0
 11
9.414648953260256
 21
-12.28151459938381
 31
0.0
  0
LINE
  5
19E
330
18
100
AcDbEntity
  8
ADP2DETAIL
  6
HIDDEN2
100
AcDbLine
 10
9.414648953260256
 20
-13.87065398781533
 30
0.0
 11
9.414648953260256
 21
-18.87065398781533
 31
0.0
  0
LINE
  5
19F
330
18
100
AcDbEntity
  8
ADP1DETAIL
100
AcDbLine
 10
11.13023193570609
 20
-17.5308629818084
 30
0.0
 11
9.449256484672707
 21
-17.5308629818084
 31
0.0
  0
LINE
  5
1A0
330
18
100
AcDbEntity
  8
ADP2DETAIL
  6
HIDDEN2
100
AcDbLine
 10
11.44273193570609
 20
-17.50641494366068
 30
0.0
 11
11.13023193570609
 21
-17.50641494366068
 31
0.0
  0
LINE
  5
1A1
330
18
100
AcDbEntity
  8
ADP1DETAIL
100
AcDbLine
 10
11.44273193570609
 20
-18.0308629818084
 30
0.0
 11
11.13023193570609
 21
-18.0308629818084
 31
0.0
  0
LINE
  5
1A2
330
18
100
AcDbEntity
  8
ADP2DETAIL
  6
HIDDEN2
100
AcDbLine
 10
11.30176677154658
 20
-16.83877037276155
 30
0.0
 11
11.42676677154658
 21
-16.71377037276155
 31
0.0
  0
LINE
  5
1A3
330
18
100
AcDbEntity
  8
ADP2DETAIL
  6
HIDDEN2
100
AcDbLine
 10
11.42676677154658
 20
-17.33877037276155
 30
0.0
 11
11.30176677154658
 21
-17.21253598002983
 31
0.0
  0
LINE
  5
1A4
330
18
100
AcDbEntity
  8
ADP1DETAIL
100
AcDbLine
 10
11.13023193570609
 20
-12.5308629818084
 30
0.0
 11
9.449256484672707
 21
-12.5308629818084
 31
0.0
  0
LINE
  5
1A5
330
18
100
AcDbEntity
  8
ADP2DETAIL
  6
HIDDEN2
100
AcDbLine
 10
11.13023193570609
 20
-12.57729012170659
 30
0.0
 11
11.44273193570609
 21
-12.57729012170659
 31
0.0
  0
LINE
  5
1A6
330
18
100
AcDbEntity
  8
ADP1DETAIL
100
AcDbLine
 10
11.13023193570609
 20
-12.0308629818084
 30
0.0
 11
11.44273193570609
 21
-12.0308629818084
 31
0.0
  0
LINE
  5
1A7
330
18
100
AcDbEntity
  8
ADP2DETAIL
  6
HIDDEN2
100
AcDbLine
 10
11.42676677154658
 20
-13.34815739814108
 30
0.0
 11
11.30176677154658
 21
-13.22192300540936
 31
0.0
  0
LINE
  5
1A8
330
18
100
AcDbEntity
  8
ADP2DETAIL
  6
HIDDEN2
100
AcDbLine
 10
11.30176677154658
 20
-12.84815739814108
 30
0.0
 11
11.42676677154658
 21
-12.72315739814108
 31
0.0
  0
LINE
  5
1A9
330
18
100
AcDbEntity
  8
ADP1DETAIL
100
AcDbLine
 10
7.826124671292996
 20
-3.531514599383811
 30
0.0
 11
9.414648953260256
 21
-3.531514599383811
 31
0.0
  0
TEXT
  5
1B7
330
18
100
AcDbEntity
  8
ADPDIM
100
AcDbText
 10
-12.78939120376566
 20
-21.01021379340888
 30
0.0
 40
0.375
  1
J U L I U S  B L U M  &  C O . ,  I N C .      ( 8 0 0 )  5 2 6 - 6 2 9 3        W W W . J U L I U S B L U M . C O M        P A R T  N o .  7 5 8
 41
1.25
  7
ARIAL_WIDE
 72
     1
 11
6.514731408785493
 21
-20.63521379340889
 31
0.0
100
AcDbText
 73
     3
  0
DIMENSION
  5
320
330
18
100
AcDbEntity
  8
ADPDIM
 62
     3
100
AcDbDimension
  2
*D11
 10
11.80742605587122
 20
-18.03151459938381
 30
0.0
 11
11.80742605587122
 21
-19.17734793271714
 31
0.0
 70
   160
 71
     5
 42
0.5
  3
ADPDIM
100
AcDbAlignedDimension
 13
9.414648953260256
 23
-18.53151459938381
 33
0.0
 14
9.414648953260256
 24
-18.03151459938381
 34
0.0
 50
90.0
100
AcDbRotatedDimension
1001
ACAD
1000
DSTYLE
1002
{
1070
   276
1070
     2
1070
   273
1070
     2
1070
   274
1070
     2
1070
   277
1070
     5
1070
   279
1070
     0
1070
   284
1070
     0
1070
   285
1070
     0
1070
   286
1070
     0
1002
}
  0
ENDSEC
  0
SECTION
  2
OBJECTS
  0
DICTIONARY
  5
C
330
0
100
AcDbDictionary
281
     1
  3
ACAD_COLOR
350
31A
  3
ACAD_GROUP
350
D
  3
ACAD_LAYOUT
350
1AF
  3
ACAD_MATERIAL
350
305
  3
ACAD_MLINESTYLE
350
E
  3
ACAD_PLOTSETTINGS
350
1B0
  3
ACAD_PLOTSTYLENAME
350
1AD
  3
ACAD_TABLESTYLE
350
31B
  3
ACAD_VISUALSTYLE
350
309
  3
AcDbVariableDictionary
350
215
  3
ASE_INDEX_DICTIONARY
350
3E5
  3
DWGPROPS
350
407
  0
DICTIONARY
  5
20D
330
18
100
AcDbDictionary
280
     1
281
     1
  3
ACAD_LAYOUTSELFREF
360
2FD
  0
DICTIONARY
  5
20B
330
15
100
AcDbDictionary
280
     1
281
     1
  3
ACAD_LAYOUTSELFREF
360
2FC
  0
DICTIONARY
  5
31A
102
{ACAD_REACTORS
330
C
102
}
330
C
100
AcDbDictionary
281
     1
  0
DICTIONARY
  5
D
102
{ACAD_REACTORS
330
C
102
}
330
C
100
AcDbDictionary
281
     1
  0
DICTIONARY
  5
1AF
102
{ACAD_REACTORS
330
C
102
}
330
C
100
AcDbDictionary
281
     1
  3
Layout1
350
1B2
  3
Model
350
1B1
  0
DICTIONARY
  5
305
102
{ACAD_REACTORS
330
C
102
}
330
C
100
AcDbDictionary
281
     1
  3
ByBlock
350
307
  3
ByLayer
350
306
  3
Global
350
308
  0
DICTIONARY
  5
E
102
{ACAD_REACTORS
330
C
102
}
330
C
100
AcDbDictionary
281
     1
  3
STANDARD
350
1B
  0
DICTIONARY
  5
1B0
102
{ACAD_REACTORS
330
C
102
}
330
C
100
AcDbDictionary
281
     1
  0
ACDBDICTIONARYWDFLT
  5
1AD
102
{ACAD_REACTORS
330
C
102
}
330
C
100
AcDbDictionary
281
     1
  3
Normal
350
1AE
100
AcDbDictionaryWithDefault
340
1AE
  0
DICTIONARY
  5
31B
102
{ACAD_REACTORS
330
C
102
}
330
C
100
AcDbDictionary
281
     1
  3
Standard
350
31C
  0
DICTIONARY
  5
309
102
{ACAD_REACTORS
330
C
102
}
330
C
100
AcDbDictionary
281
     1
  3
2dWireframe
350
30F
  3
3D Hidden
350
311
  3
3dWireframe
350
310
  3
Basic
350
30E
  3
Brighten
350
315
  3
ColorChange
350
319
  3
Conceptual
350
312
  3
Dim
350
314
  3
Facepattern
350
318
  3
Flat
350
30A
  3
FlatWithEdges
350
30B
  3
Gouraud
350
30C
  3
GouraudWithEdges
350
30D
  3
Linepattern
350
317
  3
Realistic
350
313
  3
Thicken
350
316
  0
DICTIONARY
  5
215
102
{ACAD_REACTORS
330
C
102
}
330
C
100
AcDbDictionary
281
     1
  3
CTABLESTYLE
350
404
  3
DIMASSOC
350
216
  3
INDEXCTL
350
406
  3
SORTENTS
350
405
  0
DICTIONARY
  5
3E5
102
{ACAD_REACTORS
330
C
102
}
330
C
100
AcDbDictionary
281
     1
  3
ASEBlockHierarchyIndexRecord
350
3E7
1001
DCO15
1040
1568488082.178
  0
XRECORD
  5
407
102
{ACAD_REACTORS
330
C
102
}
330
C
100
AcDbXrecord
280
     1
  1
DWGPROPS COOKIE
  2

  3

  4

  6

  7

  8
Yu Hu
  9

300
=
301
=
302
=
303
=
304
=
305
=
306
=
307
=
308
=
309
=
 40
0.0136985763888889
 41
2450212.520031632
 42
2453957.009099283
  1

 90
        0
  0
XRECORD
  5
2FD
102
{ACAD_REACTORS
330
20D
102
}
330
20D
100
AcDbXrecord
280
     1
340
18
  0
XRECORD
  5
2FC
102
{ACAD_REACTORS
330
20B
102
}
330
20B
100
AcDbXrecord
280
     1
340
15
  0
LAYOUT
  5
1B2
102
{ACAD_XDICTIONARY
360
40A
102
}
102
{ACAD_REACTORS
330
1AF
102
}
330
1AF
100
AcDbPlotSettings
  1

  2
Fax
  4

  6

 40
0.0
 41
0.0
 42
0.0
 43
0.0
 44
0.0
 45
0.0
 46
0.0
 47
0.0
 48
0.0
 49
0.0
140
0.0
141
0.0
142
1.0
143
1.0
 70
   688
 72
     0
 73
     0
 74
     5
  7
Default R14 pen assignments.ctb
 75
    16
147
1.0
148
0.0
149
0.0
100
AcDbLayout
  1
Layout1
 70
     1
 71
     1
 10
0.0
 20
0.0
 11
12.0
 21
9.0
 12
0.0
 22
0.0
 32
-3.159756027863134E+65
 14
1.000000000000000E+20
 24
1.000000000000000E+20
 34
1.000000000000000E+20
 15
-1.000000000000000E+20
 25
-1.000000000000000E+20
 35
-1.000000000000000E+20
146
0.0
 13
0.0
 23
0.0
 33
0.0
 16
1.0
 26
0.0
 36
0.0
 17
0.0
 27
1.0
 37
0.0
 76
     0
330
15
  0
LAYOUT
  5
1B1
102
{ACAD_XDICTIONARY
360
408
102
}
102
{ACAD_REACTORS
330
1AF
102
}
330
1AF
100
AcDbPlotSettings
  1

  2
Fax
  4

  6

 40
0.0
 41
0.0
 42
0.0
 43
0.0
 44
0.0
 45
0.0
 46
0.0
 47
0.0
 48
0.0
 49
0.0
140
0.0
141
0.0
142
1.0
143
1.0
 70
  1712
 72
     0
 73
     0
 74
     0
  7
Default R14 pen assignments.ctb
 75
     0
147
1.0
148
0.0
149
0.0
100
AcDbLayout
  1
Model
 70
     1
 71
     0
 10
0.0
 20
0.0
 11
12.0
 21
9.0
 12
0.0
 22
0.0
 32
0.0
 14
0.0
 24
0.0
 34
0.0
 15
0.0
 25
0.0
 35
0.0
146
0.0
 13
0.0
 23
0.0
 33
0.0
 16
1.0
 26
0.0
 36
0.0
 17
0.0
 27
1.0
 37
0.0
 76
     0
330
18
331
2D7
  0
MATERIAL
  5
307
102
{ACAD_XDICTIONARY
360
40E
102
}
102
{ACAD_REACTORS
330
305
102
}
330
305
100
AcDbMaterial
  1
ByBlock
  0
MATERIAL
  5
306
102
{ACAD_XDICTIONARY
360
40C
102
}
102
{ACAD_REACTORS
330
305
102
}
330
305
100
AcDbMaterial
  1
ByLayer
  0
MATERIAL
  5
308
102
{ACAD_XDICTIONARY
360
410
102
}
102
{ACAD_REACTORS
330
305
102
}
330
305
100
AcDbMaterial
  1
Global
  0
MLINESTYLE
  5
1B
102
{ACAD_REACTORS
330
E
102
}
330
E
100
AcDbMlineStyle
  2
STANDARD
 70
     0
  3

 62
     0
 51
90.0
 52
90.0
 71
     2
 49
0.5
 62
   256
  6
BYLAYER
 49
-0.5
 62
   256
  6
BYLAYER
  0
ACDBPLACEHOLDER
  5
1AE
102
{ACAD_REACTORS
330
1AD
102
}
330
1AD
  0
TABLESTYLE
  5
31C
102
{ACAD_XDICTIONARY
360
412
102
}
102
{ACAD_REACTORS
330
31B
102
}
330
31B
100
AcDbTableStyle
  3
Standard
 70
     0
 71
     0
 40
0.06
 41
0.06
280
     0
281
     0
  7
STANDARD
140
0.18
170
     2
 62
     0
 63
     7
283
     0
274
    -2
284
     1
 64
     0
275
    -2
285
     1
 65
     0
276
    -2
286
     1
 66
     0
277
    -2
287
     1
 67
     0
278
    -2
288
     1
 68
     0
279
    -2
289
     1
 69
     0
  7
STANDARD
140
0.25
170
     5
 62
     0
 63
     7
283
     0
274
    -2
284
     1
 64
     0
275
    -2
285
     1
 65
     0
276
    -2
286
     1
 66
     0
277
    -2
287
     1
 67
     0
278
    -2
288
     1
 68
     0
279
    -2
289
     1
 69
     0
  7
STANDARD
140
0.18
170
     5
 62
     0
 63
     7
283
     0
274
    -2
284
     1
 64
     0
275
    -2
285
     1
 65
     0
276
    -2
286
     1
 66
     0
277
    -2
287
     1
 67
     0
278
    -2
288
     1
 68
     0
279
    -2
289
     1
 69
     0
  0
VISUALSTYLE
  5
30F
102
{ACAD_REACTORS
330
309
102
}
330
309
100
AcDbVisualStyle
  2
2dWireframe
 70
     4
 71
     0
 72
     2
 73
     0
 90
        0
 40
-0.6
 41
-30.0
 62
     5
 63
     7
 74
     1
 91
        4
 64
     7
 65
   257
 75
     1
175
     1
 42
1.0
 92
        0
 66
   257
 43
1.0
 76
     1
 77
     6
 78
     2
 67
     7
 79
     5
170
     0
171
     0
290
     0
174
     0
 93
        1
 44
0.0
173
     0
291
     0
 45
0.0
1001
ACAD
1000
AcDbSavedByObjectVersion
1070
     0
  0
VISUALSTYLE
  5
311
102
{ACAD_REACTORS
330
309
102
}
330
309
100
AcDbVisualStyle
  2
3D Hidden
 70
     6
 71
     1
 72
     2
 73
     2
 90
        0
 40
-0.6
 41
-30.0
 62
     5
 63
     7
 74
     2
 91
        2
 64
     7
 65
   257
 75
     2
175
     1
 42
40.0
 92
        0
 66
   257
 43
1.0
 76
     1
 77
     6
 78
     2
 67
     7
 79
     3
170
     0
171
     0
290
     0
174
     0
 93
        1
 44
0.0
173
     0
291
     0
 45
0.0
1001
ACAD
1000
AcDbSavedByObjectVersion
1070
     0
  0
VISUALSTYLE
  5
310
102
{ACAD_REACTORS
330
309
102
}
330
309
100
AcDbVisualStyle
  2
3dWireframe
 70
     5
 71
     0
 72
     2
 73
     0
 90
        0
 40
-0.6
 41
-30.0
 62
     5
 63
     7
 74
     1
 91
        4
 64
     7
 65
   257
 75
     1
175
     1
 42
1.0
 92
        0
 66
   257
 43
1.0
 76
     1
 77
     6
 78
     2
 67
     7
 79
     5
170
     0
171
     0
290
     0
174
     0
 93
        1
 44
0.0
173
     0
291
     0
 45
0.0
1001
ACAD
1000
AcDbSavedByObjectVersion
1070
     0
  0
VISUALSTYLE
  5
30E
102
{ACAD_REACTORS
330
309
102
}
330
309
100
AcDbVisualStyle
  2
Basic
 70
     7
 71
     1
 72
     0
 73
     1
 90
        0
 40
-0.6
 41
-30.0
 62
     5
 63
     7
 74
     0
 91
        4
 64
     7
 65
   257
 75
     1
175
     1
 42
1.0
 92
        8
 66
     7
 43
1.0
 76
     1
 77
     6
 78
     2
 67
     7
 79
     5
170
     0
171
     0
290
     0
174
     0
 93
        1
 44
0.0
173
     0
291
     1
 45
0.0
1001
ACAD
1000
AcDbSavedByObjectVersion
1070
     0
  0
VISUALSTYLE
  5
315
102
{ACAD_REACTORS
330
309
102
}
330
309
100
AcDbVisualStyle
  2
Brighten
 70
    12
 71
     2
 72
     2
 73
     0
 90
        0
 40
-0.6
 41
-30.0
 62
     5
 63
     7
 74
     1
 91
        4
 64
     7
 65
   257
 75
     1
175
     1
 42
1.0
 92
        8
 66
     7
 43
1.0
 76
     1
 77
     6
 78
     2
 67
     7
 79
     5
170
     0
171
     0
290
     0
174
     0
 93
        1
 44
50.0
173
     0
291
     1
 45
0.0
1001
ACAD
1000
AcDbSavedByObjectVersion
1070
     0
  0
VISUALSTYLE
  5
319
102
{ACAD_REACTORS
330
309
102
}
330
309
100
AcDbVisualStyle
  2
ColorChange
 70
    16
 71
     2
 72
     2
 73
     3
 90
        0
 40
-0.6
 41
-30.0
 62
     5
 63
     8
 74
     1
 91
        4
 64
     7
 65
   257
 75
     1
175
     1
 42
1.0
 92
        8
 66
     8
 43
1.0
 76
     1
 77
     6
 78
     2
 67
     7
 79
     5
170
     0
171
     0
290
     0
174
     0
 93
        1
 44
0.0
173
     0
291
     1
 45
0.0
1001
ACAD
1000
AcDbSavedByObjectVersion
1070
     0
  0
VISUALSTYLE
  5
312
102
{ACAD_REACTORS
330
309
102
}
330
309
100
AcDbVisualStyle
  2
Conceptual
 70
     9
 71
     3
 72
     2
 73
     0
 90
        0
 40
-0.6
 41
-30.0
 62
     5
 63
     7
 74
     2
 91
        2
 64
     7
 65
   257
 75
     1
175
     1
 42
40.0
 92
        8
 66
     7
 43
1.0
 76
     1
 77
     6
 78
     2
 67
     7
 79
     3
170
     0
171
     0
290
     0
174
     0
 93
        1
 44
0.0
173
     0
291
     0
 45
0.0
1001
ACAD
1000
AcDbSavedByObjectVersion
1070
     0
  0
VISUALSTYLE
  5
314
102
{ACAD_REACTORS
330
309
102
}
330
309
100
AcDbVisualStyle
  2
Dim
 70
    11
 71
     2
 72
     2
 73
     0
 90
        0
 40
-0.6
 41
-30.0
 62
     5
 63
     7
 74
     1
 91
        4
 64
     7
 65
   257
 75
     1
175
     1
 42
1.0
 92
        8
 66
     7
 43
1.0
 76
     1
 77
     6
 78
     2
 67
     7
 79
     5
170
     0
171
     0
290
     0
174
     0
 93
        1
 44
-50.0
173
     0
291
     1
 45
0.0
1001
ACAD
1000
AcDbSavedByObjectVersion
1070
     0
  0
VISUALSTYLE
  5
318
102
{ACAD_REACTORS
330
309
102
}
330
309
100
AcDbVisualStyle
  2
Facepattern
 70
    15
 71
     2
 72
     2
 73
     0
 90
        0
 40
-0.6
 41
-30.0
 62
     5
 63
     7
 74
     1
 91
        4
 64
     7
 65
   257
 75
     1
175
     1
 42
1.0
 92
        8
 66
     7
 43
1.0
 76
     1
 77
     6
 78
     2
 67
     7
 79
     5
170
     0
171
     0
290
     0
174
     0
 93
        1
 44
0.0
173
     0
291
     1
 45
0.0
1001
ACAD
1000
AcDbSavedByObjectVersion
1070
     0
  0
VISUALSTYLE
  5
30A
102
{ACAD_REACTORS
330
309
102
}
330
309
100
AcDbVisualStyle
  2
Flat
 70
     0
 71
     2
 72
     1
 73
     1
 90
        2
 40
-0.6
 41
30.0
 62
     5
 63
     7
 74
     0
 91
        4
 64
     7
 65
   257
 75
     1
175
     1
 42
1.0
 92
        8
 66
     7
 43
1.0
 76
     1
 77
     6
 78
     2
 67
     7
 79
     5
170
     0
171
     0
290
     0
174
     0
 93
       13
 44
0.0
173
     0
291
     1
 45
0.0
1001
ACAD
1000
AcDbSavedByObjectVersion
1070
     0
  0
VISUALSTYLE
  5
30B
102
{ACAD_REACTORS
330
309
102
}
330
309
100
AcDbVisualStyle
  2
FlatWithEdges
 70
     1
 71
     2
 72
     1
 73
     1
 90
        2
 40
-0.6
 41
30.0
 62
     5
 63
     7
 74
     1
 91
        4
 64
     7
 65
   257
 75
     1
175
     1
 42
1.0
 92
        0
 66
   257
 43
1.0
 76
     1
 77
     6
 78
     2
 67
     7
 79
     5
170
     0
171
     0
290
     0
174
     0
 93
       13
 44
0.0
173
     0
291
     1
 45
0.0
1001
ACAD
1000
AcDbSavedByObjectVersion
1070
     0
  0
VISUALSTYLE
  5
30C
102
{ACAD_REACTORS
330
309
102
}
330
309
100
AcDbVisualStyle
  2
Gouraud
 70
     2
 71
     2
 72
     2
 73
     1
 90
        2
 40
-0.6
 41
30.0
 62
     5
 63
     7
 74
     0
 91
        4
 64
     7
 65
   257
 75
     1
175
     1
 42
1.0
 92
        0
 66
     7
 43
1.0
 76
     1
 77
     6
 78
     2
 67
     7
 79
     5
170
     0
171
     0
290
     0
174
     0
 93
       13
 44
0.0
173
     0
291
     1
 45
0.0
1001
ACAD
1000
AcDbSavedByObjectVersion
1070
     0
  0
VISUALSTYLE
  5
30D
102
{ACAD_REACTORS
330
309
102
}
330
309
100
AcDbVisualStyle
  2
GouraudWithEdges
 70
     3
 71
     2
 72
     2
 73
     1
 90
        2
 40
-0.6
 41
30.0
 62
     5
 63
     7
 74
     1
 91
        4
 64
     7
 65
   257
 75
     1
175
     1
 42
1.0
 92
        0
 66
   257
 43
1.0
 76
     1
 77
     6
 78
     2
 67
     7
 79
     5
170
     0
171
     0
290
     0
174
     0
 93
       13
 44
0.0
173
     0
291
     1
 45
0.0
1001
ACAD
1000
AcDbSavedByObjectVersion
1070
     0
  0
VISUALSTYLE
  5
317
102
{ACAD_REACTORS
330
309
102
}
330
309
100
AcDbVisualStyle
  2
Linepattern
 70
    14
 71
     2
 72
     2
 73
     0
 90
        0
 40
-0.6
 41
-30.0
 62
     5
 63
     7
 74
     1
 91
        4
 64
     7
 65
   257
 75
     7
175
     7
 42
1.0
 92
        8
 66
     7
 43
1.0
 76
     1
 77
     6
 78
     2
 67
     7
 79
     5
170
     0
171
     0
290
     0
174
     0
 93
        1
 44
0.0
173
     0
291
     1
 45
0.0
1001
ACAD
1000
AcDbSavedByObjectVersion
1070
     0
  0
VISUALSTYLE
  5
313
102
{ACAD_REACTORS
330
309
102
}
330
309
100
AcDbVisualStyle
  2
Realistic
 70
     8
 71
     2
 72
     2
 73
     0
 90
        0
 40
-0.6
 41
-30.0
 62
     5
 63
     7
 74
     1
 91
        0
 64
     7
 65
   257
 75
     1
175
     1
 42
1.0
 92
        8
 66
     8
 43
1.0
 76
     1
 77
     6
 78
     2
 67
     7
 79
     5
170
     0
171
     0
290
     0
174
     0
 93
       13
 44
0.0
173
     0
291
     0
 45
0.0
1001
ACAD
1000
AcDbSavedByObjectVersion
1070
     0
  0
VISUALSTYLE
  5
316
102
{ACAD_REACTORS
330
309
102
}
330
309
100
AcDbVisualStyle
  2
Thicken
 70
    13
 71
     2
 72
     2
 73
     0
 90
        0
 40
-0.6
 41
-30.0
 62
     5
 63
     7
 74
     1
 91
        4
 64
     7
 65
   257
 75
     1
175
     1
 42
1.0
 92
       12
 66
     7
 43
1.0
 76
     1
 77
     6
 78
     2
 67
     7
 79
     5
170
     0
171
     0
290
     0
174
     0
 93
        1
 44
0.0
173
     0
291
     1
 45
0.0
1001
ACAD
1000
AcDbSavedByObjectVersion
1070
     0
  0
DICTIONARYVAR
  5
404
102
{ACAD_REACTORS
330
215
102
}
330
215
100
DictionaryVariables
280
     0
  1
STANDARD
  0
DICTIONARYVAR
  5
216
102
{ACAD_REACTORS
330
215
102
}
330
215
100
DictionaryVariables
280
     0
  1
1
  0
DICTIONARYVAR
  5
406
102
{ACAD_REACTORS
330
215
102
}
330
215
100
DictionaryVariables
280
     0
  1
0
  0
DICTIONARYVAR
  5
405
102
{ACAD_REACTORS
330
215
102
}
330
215
100
DictionaryVariables
280
     0
  1
127
  0
XRECORD
  5
3E7
102
{ACAD_REACTORS
330
3E5
102
}
330
3E5
100
AcDbXrecord
280
     1
  0
DICTIONARY
  5
40A
330
1B2
100
AcDbDictionary
280
     1
281
     1
  3
ACAD_XREC_ROUNDTRIP
360
40B
  0
DICTIONARY
  5
408
330
1B1
100
AcDbDictionary
280
     1
281
     1
  3
ACAD_XREC_ROUNDTRIP
360
409
  0
DICTIONARY
  5
40E
330
307
100
AcDbDictionary
280
     1
281
     1
  3
ACAD_XREC_ROUNDTRIP
360
40F
  0
DICTIONARY
  5
40C
330
306
100
AcDbDictionary
280
     1
281
     1
  3
ACAD_XREC_ROUNDTRIP
360
40D
  0
DICTIONARY
  5
410
330
308
100
AcDbDictionary
280
     1
281
     1
  3
ACAD_XREC_ROUNDTRIP
360
411
  0
DICTIONARY
  5
412
330
31C
100
AcDbDictionary
280
     1
281
     1
  3
ACAD_XREC_ROUNDTRIP
360
413
  0
XRECORD
  5
40B
102
{ACAD_REACTORS
330
40A
102
}
330
40A
100
AcDbXrecord
280
     1
102
SHADEPLOT
 70
     0
102
SHADEPLOTRESLEVEL
 70
     2
102
SHADEPLOTCUSTOMDPI
 70
   300
  0
XRECORD
  5
409
102
{ACAD_REACTORS
330
408
102
}
330
408
100
AcDbXrecord
280
     1
102
SHADEPLOT
 70
     0
102
SHADEPLOTRESLEVEL
 70
     2
102
SHADEPLOTCUSTOMDPI
 70
   300
  0
XRECORD
  5
40F
102
{ACAD_REACTORS
330
40E
102
}
330
40E
100
AcDbXrecord
280
     1
102
MATERIAL
148
0.0
149
0.0
149
0.0
 93
        0
 94
       63
282
     0
 72
     1
 77
     1
171
     1
175
     1
179
     1
273
     0
  0
XRECORD
  5
40D
102
{ACAD_REACTORS
330
40C
102
}
330
40C
100
AcDbXrecord
280
     1
102
MATERIAL
148
0.0
149
0.0
149
0.0
 93
        0
 94
       63
282
     0
 72
     1
 77
     1
171
     1
175
     1
179
     1
273
     0
  0
XRECORD
  5
411
102
{ACAD_REACTORS
330
410
102
}
330
410
100
AcDbXrecord
280
     1
102
MATERIAL
148
0.0
149
0.0
149
0.0
 93
        0
 94
       63
282
     0
 72
     1
 77
     1
171
     1
175
     1
179
     1
273
     0
  0
XRECORD
  5
413
102
{ACAD_REACTORS
330
412
102
}
330
412
100
AcDbXrecord
280
     1
102
ACAD_ROUNDTRIP_PRE2007_TABLESTYLE
 90
      512
 91
        0
  1

 92
      512
 93
        0
  2

 94
      512
 95
        0
  3

  0
ENDSEC
  0
EOF
